  0
SECTION
  2
HEADER
  9
$ACADVER
  1
AC1015
  9
$ACADMAINTVER
 70
     6
  9
$DWGCODEPAGE
  3
ANSI_1252
  9
$INSBASE
 10
0.0
 20
0.0
 30
0.0
  9
$EXTMIN
 10
686.9280241935486
 20
-679.100201612904
 30
0.0
  9
$EXTMAX
 10
983.9280241935488
 20
-469.1002016129039
 30
0.0
  9
$LIMMIN
 10
0.0
 20
0.0
  9
$LIMMAX
 10
12.0
 20
9.0
  9
$ORTHOMODE
 70
     0
  9
$REGENMODE
 70
     1
  9
$FILLMODE
 70
     1
  9
$QTEXTMODE
 70
     0
  9
$MIRRTEXT
 70
     1
  9
$LTSCALE
 40
1.0
  9
$ATTMODE
 70
     1
  9
$TEXTSIZE
 40
0.2
  9
$TRACEWID
 40
0.05
  9
$TEXTSTYLE
  7
Standard
  9
$CLAYER
  8
0
  9
$CELTYPE
  6
ByLayer
  9
$CECOLOR
 62
   256
  9
$CELTSCALE
 40
1.0
  9
$DISPSILH
 70
     0
  9
$DIMSCALE
 40
1.0
  9
$DIMASZ
 40
0.18
  9
$DIMEXO
 40
0.0625
  9
$DIMDLI
 40
0.38
  9
$DIMRND
 40
0.0
  9
$DIMDLE
 40
0.0
  9
$DIMEXE
 40
0.18
  9
$DIMTP
 40
0.0
  9
$DIMTM
 40
0.0
  9
$DIMTXT
 40
0.18
  9
$DIMCEN
 40
0.09
  9
$DIMTSZ
 40
0.0
  9
$DIMTOL
 70
     0
  9
$DIMLIM
 70
     0
  9
$DIMTIH
 70
     1
  9
$DIMTOH
 70
     1
  9
$DIMSE1
 70
     0
  9
$DIMSE2
 70
     0
  9
$DIMTAD
 70
     0
  9
$DIMZIN
 70
     0
  9
$DIMBLK
  1

  9
$DIMASO
 70
     1
  9
$DIMSHO
 70
     1
  9
$DIMPOST
  1

  9
$DIMAPOST
  1

  9
$DIMALT
 70
     0
  9
$DIMALTD
 70
     2
  9
$DIMALTF
 40
25.4
  9
$DIMLFAC
 40
1.0
  9
$DIMTOFL
 70
     0
  9
$DIMTVP
 40
0.0
  9
$DIMTIX
 70
     0
  9
$DIMSOXD
 70
     0
  9
$DIMSAH
 70
     0
  9
$DIMBLK1
  1

  9
$DIMBLK2
  1

  9
$DIMSTYLE
  2
Standard
  9
$DIMCLRD
 70
     0
  9
$DIMCLRE
 70
     0
  9
$DIMCLRT
 70
     0
  9
$DIMTFAC
 40
1.0
  9
$DIMGAP
 40
0.09
  9
$DIMJUST
 70
     0
  9
$DIMSD1
 70
     0
  9
$DIMSD2
 70
     0
  9
$DIMTOLJ
 70
     1
  9
$DIMTZIN
 70
     0
  9
$DIMALTZ
 70
     0
  9
$DIMALTTZ
 70
     0
  9
$DIMUPT
 70
     0
  9
$DIMDEC
 70
     4
  9
$DIMTDEC
 70
     4
  9
$DIMALTU
 70
     2
  9
$DIMALTTD
 70
     2
  9
$DIMTXSTY
  7
Standard
  9
$DIMAUNIT
 70
     0
  9
$DIMADEC
 70
     0
  9
$DIMALTRND
 40
0.0
  9
$DIMAZIN
 70
     0
  9
$DIMDSEP
 70
    46
  9
$DIMATFIT
 70
     3
  9
$DIMFRAC
 70
     0
  9
$DIMLDRBLK
  1

  9
$DIMLUNIT
 70
     2
  9
$DIMLWD
 70
    -2
  9
$DIMLWE
 70
    -2
  9
$DIMTMOVE
 70
     0
  9
$LUNITS
 70
     2
  9
$LUPREC
 70
     4
  9
$SKETCHINC
 40
0.1
  9
$FILLETRAD
 40
0.5
  9
$AUNITS
 70
     0
  9
$AUPREC
 70
     0
  9
$MENU
  1
.
  9
$ELEVATION
 40
0.0
  9
$PELEVATION
 40
0.0
  9
$THICKNESS
 40
0.0
  9
$LIMCHECK
 70
     0
  9
$CHAMFERA
 40
0.5
  9
$CHAMFERB
 40
0.5
  9
$CHAMFERC
 40
1.0
  9
$CHAMFERD
 40
0.0
  9
$SKPOLY
 70
     0
  9
$TDCREATE
 40
2456997.606598275
  9
$TDUCREATE
 40
2456997.564931609
  9
$TDUPDATE
 40
2456997.606598461
  9
$TDUUPDATE
 40
2456997.564931794
  9
$TDINDWG
 40
0.0000000116
  9
$TDUSRTIMER
 40
0.0000000116
  9
$USRTIMER
 70
     1
  9
$ANGBASE
 50
0.0
  9
$ANGDIR
 70
     0
  9
$PDMODE
 70
     0
  9
$PDSIZE
 40
0.0
  9
$PLINEWID
 40
0.0
  9
$SPLFRAME
 70
     0
  9
$SPLINETYPE
 70
     6
  9
$SPLINESEGS
 70
     8
  9
$HANDSEED
  5
1EC
  9
$SURFTAB1
 70
     6
  9
$SURFTAB2
 70
     6
  9
$SURFTYPE
 70
     6
  9
$SURFU
 70
     6
  9
$SURFV
 70
     6
  9
$UCSBASE
  2

  9
$UCSNAME
  2

  9
$UCSORG
 10
0.0
 20
0.0
 30
0.0
  9
$UCSXDIR
 10
1.0
 20
0.0
 30
0.0
  9
$UCSYDIR
 10
0.0
 20
1.0
 30
0.0
  9
$UCSORTHOREF
  2

  9
$UCSORTHOVIEW
 70
     0
  9
$UCSORGTOP
 10
0.0
 20
0.0
 30
0.0
  9
$UCSORGBOTTOM
 10
0.0
 20
0.0
 30
0.0
  9
$UCSORGLEFT
 10
0.0
 20
0.0
 30
0.0
  9
$UCSORGRIGHT
 10
0.0
 20
0.0
 30
0.0
  9
$UCSORGFRONT
 10
0.0
 20
0.0
 30
0.0
  9
$UCSORGBACK
 10
0.0
 20
0.0
 30
0.0
  9
$PUCSBASE
  2

  9
$PUCSNAME
  2

  9
$PUCSORG
 10
0.0
 20
0.0
 30
0.0
  9
$PUCSXDIR
 10
1.0
 20
0.0
 30
0.0
  9
$PUCSYDIR
 10
0.0
 20
1.0
 30
0.0
  9
$PUCSORTHOREF
  2

  9
$PUCSORTHOVIEW
 70
     0
  9
$PUCSORGTOP
 10
0.0
 20
0.0
 30
0.0
  9
$PUCSORGBOTTOM
 10
0.0
 20
0.0
 30
0.0
  9
$PUCSORGLEFT
 10
0.0
 20
0.0
 30
0.0
  9
$PUCSORGRIGHT
 10
0.0
 20
0.0
 30
0.0
  9
$PUCSORGFRONT
 10
0.0
 20
0.0
 30
0.0
  9
$PUCSORGBACK
 10
0.0
 20
0.0
 30
0.0
  9
$USERI1
 70
     0
  9
$USERI2
 70
     0
  9
$USERI3
 70
     0
  9
$USERI4
 70
     0
  9
$USERI5
 70
     0
  9
$USERR1
 40
18.1
  9
$USERR2
 40
0.0
  9
$USERR3
 40
0.0
  9
$USERR4
 40
0.0
  9
$USERR5
 40
0.0
  9
$WORLDVIEW
 70
     1
  9
$SHADEDGE
 70
     3
  9
$SHADEDIF
 70
    70
  9
$TILEMODE
 70
     1
  9
$MAXACTVP
 70
    64
  9
$PINSBASE
 10
0.0
 20
0.0
 30
0.0
  9
$PLIMCHECK
 70
     0
  9
$PEXTMIN
 10
1.00000000000000E+20
 20
1.00000000000000E+20
 30
1.00000000000000E+20
  9
$PEXTMAX
 10
-1.00000000000000E+20
 20
-1.00000000000000E+20
 30
-1.00000000000000E+20
  9
$PLIMMIN
 10
0.0
 20
0.0
  9
$PLIMMAX
 10
12.0
 20
9.0
  9
$UNITMODE
 70
     0
  9
$VISRETAIN
 70
     1
  9
$PLINEGEN
 70
     0
  9
$PSLTSCALE
 70
     1
  9
$TREEDEPTH
 70
  3020
  9
$CMLSTYLE
  2
Standard
  9
$CMLJUST
 70
     0
  9
$CMLSCALE
 40
1.0
  9
$PROXYGRAPHICS
 70
     1
  9
$MEASUREMENT
 70
     1
  9
$CELWEIGHT
370
    -1
  9
$ENDCAPS
280
     0
  9
$JOINSTYLE
280
     0
  9
$LWDISPLAY
290
     0
  9
$INSUNITS
 70
     4
  9
$HYPERLINKBASE
  1

  9
$STYLESHEET
  1

  9
$XEDIT
290
     1
  9
$CEPSNTYPE
380
     0
  9
$PSTYLEMODE
290
     1
  9
$FINGERPRINTGUID
  2
{AE84DED6-0602-483A-8442-F3404991713F}
  9
$VERSIONGUID
  2
{FAEB1C32-E019-11D5-929B-00C0DF256EC4}
  9
$EXTNAMES
290
     1
  9
$PSVPSCALE
 40
0.0
  9
$OLESTARTUP
290
     0
  0
ENDSEC
  0
SECTION
  2
CLASSES
  0
CLASS
  1
ACDBDICTIONARYWDFLT
  2
AcDbDictionaryWithDefault
  3
ObjectDBX Classes
 90
        0
280
     0
281
     0
  0
CLASS
  1
VISUALSTYLE
  2
AcDbVisualStyle
  3
ObjectDBX Classes
 90
     4095
280
     0
281
     0
  0
CLASS
  1
MATERIAL
  2
AcDbMaterial
  3
ObjectDBX Classes
 90
     1153
280
     0
281
     0
  0
CLASS
  1
DICTIONARYVAR
  2
AcDbDictionaryVar
  3
ObjectDBX Classes
 90
        0
280
     0
281
     0
  0
CLASS
  1
ACDBPLACEHOLDER
  2
AcDbPlaceHolder
  3
ObjectDBX Classes
 90
        0
280
     0
281
     0
  0
CLASS
  1
LAYOUT
  2
AcDbLayout
  3
ObjectDBX Classes
 90
        0
280
     0
281
     0
  0
ENDSEC
  0
SECTION
  2
TABLES
  0
TABLE
  2
VPORT
  5
8
330
0
100
AcDbSymbolTable
 70
     1
  0
VPORT
  5
29
330
8
100
AcDbSymbolTableRecord
100
AcDbViewportTableRecord
  2
*Active
 70
     0
 10
0.0
 20
0.0
 11
1.0
 21
1.0
 12
835.4280241935487
 22
-574.1002016129039
 13
0.0
 23
0.0
 14
0.5
 24
0.5
 15
0.5
 25
0.5
 16
0.0
 26
0.0
 36
1.0
 17
0.0
 27
0.0
 37
0.0
 40
231.0000000000001
 41
1.60267857142857
 42
50.0
 43
0.0
 44
0.0
 50
0.0
 51
0.0
 71
     0
 72
   100
 73
     1
 74
     3
 75
     0
 76
     0
 77
     0
 78
     0
281
     0
 65
     1
110
0.0
120
0.0
130
0.0
111
1.0
121
0.0
131
0.0
112
0.0
122
1.0
132
0.0
 79
     0
146
0.0
  0
ENDTAB
  0
TABLE
  2
LTYPE
  5
5
330
0
100
AcDbSymbolTable
 70
     8
  0
LTYPE
  5
14
330
5
100
AcDbSymbolTableRecord
100
AcDbLinetypeTableRecord
  2
ByBlock
 70
     0
  3

 72
    65
 73
     0
 40
0.0
  0
LTYPE
  5
15
330
5
100
AcDbSymbolTableRecord
100
AcDbLinetypeTableRecord
  2
ByLayer
 70
     0
  3

 72
    65
 73
     0
 40
0.0
  0
LTYPE
  5
16
330
5
100
AcDbSymbolTableRecord
100
AcDbLinetypeTableRecord
  2
Continuous
 70
     0
  3
Solid line
 72
    65
 73
     0
 40
0.0
  0
LTYPE
  5
3F
330
5
100
AcDbSymbolTableRecord
100
AcDbLinetypeTableRecord
  2
DASHED
 70
     0
  3
Dashed
 72
    65
 73
     2
 40
15.0
 49
7.0
 74
     0
 49
-8.0
 74
     0
  0
LTYPE
  5
40
330
5
100
AcDbSymbolTableRecord
100
AcDbLinetypeTableRecord
  2
DOTTED
 70
     0
  3
Dotted
 72
    65
 73
     2
 40
1.0
 49
0.0
 74
     0
 49
-1.0
 74
     0
  0
LTYPE
  5
41
330
5
100
AcDbSymbolTableRecord
100
AcDbLinetypeTableRecord
  2
DOT_CENTER
 70
     0
  3
Dot_Center
 72
    65
 73
     4
 40
14.0
 49
12.0
 74
     0
 49
-1.0
 74
     0
 49
0.0
 74
     0
 49
-1.0
 74
     0
  0
LTYPE
  5
42
330
5
100
AcDbSymbolTableRecord
100
AcDbLinetypeTableRecord
  2
LONG_DASHED
 70
     0
  3
Long_Dashed
 72
    65
 73
     2
 40
15.0
 49
10.0
 74
     0
 49
-5.0
 74
     0
  0
LTYPE
  5
43
330
5
100
AcDbSymbolTableRecord
100
AcDbLinetypeTableRecord
  2
DASH_CENTER
 70
     0
  3
Dash_Center
 72
    65
 73
     4
 40
14.0
 49
11.0
 74
     0
 49
-1.0
 74
     0
 49
1.0
 74
     0
 49
-1.0
 74
     0
  0
LTYPE
  5
44
330
5
100
AcDbSymbolTableRecord
100
AcDbLinetypeTableRecord
  2
PHANTOM
 70
     0
  3
Phantom
 72
    65
 73
     6
 40
13.0
 49
10.0
 74
     0
 49
-1.0
 74
     0
 49
0.0
 74
     0
 49
-1.0
 74
     0
 49
0.0
 74
     0
 49
-1.0
 74
     0
  0
LTYPE
  5
45
330
5
100
AcDbSymbolTableRecord
100
AcDbLinetypeTableRecord
  2
CENTER_DASH_DASH
 70
     0
  3
Center_Dash_Dash
 72
    65
 73
     6
 40
14.0
 49
9.0
 74
     0
 49
-1.0
 74
     0
 49
1.0
 74
     0
 49
-1.0
 74
     0
 49
1.0
 74
     0
 49
-1.0
 74
     0
  0
ENDTAB
  0
TABLE
  2
LAYER
  5
2
330
0
100
AcDbSymbolTable
 70
     3
  0
LAYER
  5
10
330
2
100
AcDbSymbolTableRecord
100
AcDbLayerTableRecord
  2
0
 70
     0
 62
     7
  6
Continuous
370
    -3
390
F
  0
LAYER
  5
46
330
2
100
AcDbSymbolTableRecord
100
AcDbLayerTableRecord
  2
1
 70
     0
 62
     7
  6
Continuous
370
    -3
390
F
  0
LAYER
  5
47
330
2
100
AcDbSymbolTableRecord
100
AcDbLayerTableRecord
  2
Sichtbare_Kanten_TC_020513_DIN_
 70
     0
 62
     7
  6
Continuous
370
    -3
390
F
  0
ENDTAB
  0
TABLE
  2
STYLE
  5
3
330
0
100
AcDbSymbolTable
 70
     4
  0
STYLE
  5
11
330
3
100
AcDbSymbolTableRecord
100
AcDbTextStyleTableRecord
  2
Standard
 70
     0
 40
0.0
 41
1.0
 50
0.0
 71
     0
 42
0.2
  3
txt
  4

  0
STYLE
  5
9B
330
3
100
AcDbSymbolTableRecord
100
AcDbTextStyleTableRecord
  2
CONVERTER_11
 70
     0
 40
0.0
 41
1.2
 50
0.0
 71
     0
 42
0.2
  3
ARIAL.TTF
  4

  0
STYLE
  5
18F
330
3
100
AcDbSymbolTableRecord
100
AcDbTextStyleTableRecord
  2
CONVERTER_12
 70
     0
 40
0.0
 41
1.056
 50
0.0
 71
     0
 42
0.2
  3
ARIAL.TTF
  4

  0
STYLE
  5
19A
330
3
100
AcDbSymbolTableRecord
100
AcDbTextStyleTableRecord
  2
CONVERTER_13
 70
     0
 40
0.0
 41
0.95
 50
0.0
 71
     0
 42
0.2
  3
simplex.shx
  4

  0
ENDTAB
  0
TABLE
  2
VIEW
  5
6
330
0
100
AcDbSymbolTable
 70
     0
  0
ENDTAB
  0
TABLE
  2
UCS
  5
7
330
0
100
AcDbSymbolTable
 70
     0
  0
ENDTAB
  0
TABLE
  2
APPID
  5
9
330
0
100
AcDbSymbolTable
 70
     1
  0
APPID
  5
12
330
9
100
AcDbSymbolTableRecord
100
AcDbRegAppTableRecord
  2
ACAD
 70
     0
  0
ENDTAB
  0
TABLE
  2
DIMSTYLE
  5
A
330
0
100
AcDbSymbolTable
 70
     5
100
AcDbDimStyleTable
  0
DIMSTYLE
105
27
330
A
100
AcDbSymbolTableRecord
100
AcDbDimStyleTableRecord
  2
Standard
 70
     0
178
     0
340
11
  0
DIMSTYLE
105
19E
102
{ACAD_REACTORS
330
19F
102
}
330
A
100
AcDbSymbolTableRecord
100
AcDbDimStyleTableRecord
  2
ME10_DIM_10
 70
     0
 41
3.0
 42
0.5
 44
1.0
 73
     0
 74
     0
 77
     1
 78
     8
140
3.0
147
2.0
172
     1
173
     1
174
     1
175
     1
176
     2
177
     2
271
     2
178
     4
271
     2
340
19A
  0
DIMSTYLE
105
1A9
102
{ACAD_REACTORS
330
1AA
102
}
330
A
100
AcDbSymbolTableRecord
100
AcDbDimStyleTableRecord
  2
ME10_DIM_11
 70
     0
  3
M<>
 41
3.0
 42
0.5
 44
1.0
 73
     0
 74
     0
 77
     1
 78
     8
140
3.0
147
2.0
172
     1
173
     1
174
     1
175
     1
176
     2
177
     2
271
     2
178
     4
271
     2
340
19A
  0
DIMSTYLE
105
1B4
102
{ACAD_REACTORS
330
1B5
102
}
330
A
100
AcDbSymbolTableRecord
100
AcDbDimStyleTableRecord
  2
ME10_DIM_12
 70
     0
 41
3.0
 42
0.5
 44
1.0
 73
     0
 74
     0
 77
     1
 78
     8
140
3.0
147
2.0
172
     1
173
     1
174
     1
175
     1
176
     2
177
     2
271
     2
178
     4
271
     2
340
19A
  0
DIMSTYLE
105
1BF
102
{ACAD_REACTORS
330
1C0
102
}
330
A
100
AcDbSymbolTableRecord
100
AcDbDimStyleTableRecord
  2
ME10_DIM_13
 70
     0
 41
3.0
 42
0.5
 44
1.0
 73
     0
 74
     0
 77
     1
 78
     8
140
3.0
147
2.0
172
     1
173
     1
174
     1
175
     1
176
     2
177
     2
271
     2
178
     4
271
     2
340
19A
  0
ENDTAB
  0
TABLE
  2
BLOCK_RECORD
  5
1
330
0
100
AcDbSymbolTable
 70
     7
  0
BLOCK_RECORD
  5
1F
330
1
100
AcDbSymbolTableRecord
100
AcDbBlockTableRecord
  2
*Model_Space
340
22
  0
BLOCK_RECORD
  5
1B
330
1
100
AcDbSymbolTableRecord
100
AcDbBlockTableRecord
  2
*Paper_Space
340
1E
  0
BLOCK_RECORD
  5
23
330
1
100
AcDbSymbolTableRecord
100
AcDbBlockTableRecord
  2
*Paper_Space0
340
26
  0
BLOCK_RECORD
  5
48
330
1
100
AcDbSymbolTableRecord
100
AcDbBlockTableRecord
  2
_formato_A4
340
0
102
{BLKREFS
331
4C
102
}
  0
BLOCK_RECORD
  5
4B
330
1
100
AcDbSymbolTableRecord
100
AcDbBlockTableRecord
  2
A4_oriz
340
0
102
{BLKREFS
331
4F
102
}
  0
BLOCK_RECORD
  5
194
330
1
100
AcDbSymbolTableRecord
100
AcDbBlockTableRecord
  2
*D3
340
0
  0
BLOCK_RECORD
  5
1A0
330
1
100
AcDbSymbolTableRecord
100
AcDbBlockTableRecord
  2
*D4
340
0
  0
BLOCK_RECORD
  5
1AB
330
1
100
AcDbSymbolTableRecord
100
AcDbBlockTableRecord
  2
*D5
340
0
  0
BLOCK_RECORD
  5
1B6
330
1
100
AcDbSymbolTableRecord
100
AcDbBlockTableRecord
  2
*D6
340
0
  0
ENDTAB
  0
ENDSEC
  0
SECTION
  2
BLOCKS
  0
BLOCK
  5
20
330
1F
100
AcDbEntity
  8
0
100
AcDbBlockBegin
  2
*Model_Space
 70
     0
 10
0.0
 20
0.0
 30
0.0
  3
*Model_Space
  1

  0
ENDBLK
  5
21
330
1F
100
AcDbEntity
  8
0
100
AcDbBlockEnd
  0
BLOCK
  5
1C
330
1B
100
AcDbEntity
 67
     1
  8
0
100
AcDbBlockBegin
  2
*Paper_Space
 70
     0
 10
0.0
 20
0.0
 30
0.0
  3
*Paper_Space
  1

  0
ENDBLK
  5
1D
330
1B
100
AcDbEntity
 67
     1
  8
0
100
AcDbBlockEnd
  0
BLOCK
  5
24
330
23
100
AcDbEntity
  8
0
100
AcDbBlockBegin
  2
*Paper_Space0
 70
     0
 10
0.0
 20
0.0
 30
0.0
  3
*Paper_Space0
  1

  0
ENDBLK
  5
25
330
23
100
AcDbEntity
  8
0
100
AcDbBlockEnd
  0
BLOCK
  5
49
330
48
100
AcDbEntity
  8
0
100
AcDbBlockBegin
  2
_formato_A4
 70
     0
 10
491.9640120967744
 20
-339.550100806452
 30
0.0
  3
_formato_A4
  1

  0
LINE
  5
50
330
48
100
AcDbEntity
  8
1
  6
Continuous
 62
     7
100
AcDbLine
 10
442.9640120967744
 20
-319.5501008064521
 30
0.0
 11
442.9640120967744
 21
-334.550100806452
 31
0.0
  0
LINE
  5
51
330
48
100
AcDbEntity
  8
1
  6
Continuous
 62
     7
100
AcDbLine
 10
460.3166134742597
 20
-319.5501008064521
 30
0.0
 11
460.3166134742597
 21
-334.550100806452
 31
0.0
  0
LINE
  5
52
330
48
100
AcDbEntity
  8
1
  6
Continuous
 62
     7
100
AcDbLine
 10
332.9640120967744
 20
-319.5501008064521
 30
0.0
 11
332.9640120967744
 21
-334.550100806452
 31
0.0
  0
LINE
  5
53
330
48
100
AcDbEntity
  8
1
  6
Continuous
 62
     7
100
AcDbLine
 10
302.9640120967744
 20
-327.050100806452
 30
0.0
 11
332.9640120967744
 21
-327.050100806452
 31
0.0
  0
LINE
  5
54
330
48
100
AcDbEntity
  8
1
  6
Continuous
 62
     7
100
AcDbLine
 10
343.464012096774
 20
-129.5501008064519
 30
0.0
 11
343.464012096774
 21
-144.5501008064519
 31
0.0
  0
LINE
  5
55
330
48
100
AcDbEntity
  8
1
  6
Continuous
 62
     7
100
AcDbLine
 10
194.9640120967742
 20
-339.550100806452
 30
0.0
 11
491.9640120967744
 21
-339.550100806452
 31
0.0
  0
LINE
  5
56
330
48
100
AcDbEntity
  8
1
  6
Continuous
 62
     7
100
AcDbLine
 10
194.9640120967742
 20
-129.5501008064519
 30
0.0
 11
194.9640120967742
 21
-339.550100806452
 31
0.0
  0
LINE
  5
57
330
48
100
AcDbEntity
  8
1
  6
Continuous
 62
     7
100
AcDbLine
 10
491.9640120967744
 20
-129.5501008064519
 30
0.0
 11
194.9640120967742
 21
-129.5501008064519
 31
0.0
  0
LINE
  5
58
330
48
100
AcDbEntity
  8
1
  6
Continuous
 62
     7
100
AcDbLine
 10
491.9640120967744
 20
-339.550100806452
 30
0.0
 11
491.9640120967744
 21
-129.5501008064519
 31
0.0
  0
LINE
  5
59
330
48
100
AcDbEntity
  8
1
  6
Continuous
 62
     7
100
AcDbLine
 10
199.9640120967741
 20
-334.550100806452
 30
0.0
 11
486.9640120967744
 21
-334.550100806452
 31
0.0
  0
LINE
  5
5A
330
48
100
AcDbEntity
  8
1
  6
Continuous
 62
     7
100
AcDbLine
 10
486.9640120967744
 20
-334.550100806452
 30
0.0
 11
486.9640120967744
 21
-150.550100806452
 31
0.0
  0
LINE
  5
5B
330
48
100
AcDbEntity
  8
1
  6
Continuous
 62
     7
100
AcDbLine
 10
486.9640120967744
 20
-150.550100806452
 30
0.0
 11
199.9640120967741
 21
-150.550100806452
 31
0.0
  0
LINE
  5
5C
102
{ACAD_REACTORS
330
A3
102
}
330
48
100
AcDbEntity
  8
1
  6
Continuous
 62
     7
100
AcDbLine
 10
475.9736461188504
 20
-329.4726009666194
 30
0.0
 11
475.9736461188504
 21
-324.6276006462847
 31
0.0
  0
LINE
  5
5D
102
{ACAD_REACTORS
330
A0
102
}
330
48
100
AcDbEntity
  8
1
  6
Continuous
 62
     7
100
AcDbLine
 10
474.640312785517
 20
-327.050100806452
 30
0.0
 11
474.640312785517
 21
-325.3180499988832
 31
0.0
  0
LINE
  5
5E
102
{ACAD_REACTORS
330
A0
102
}
330
48
100
AcDbEntity
  8
1
  6
Continuous
 62
     7
100
AcDbLine
 10
474.640312785517
 20
-325.3180499988832
 30
0.0
 11
473.7846503528144
 21
-326.800100806452
 31
0.0
  0
LINE
  5
5F
102
{ACAD_REACTORS
330
A0
102
}
330
48
100
AcDbEntity
  8
1
  6
Continuous
 62
     7
100
AcDbLine
 10
473.4959752182195
 20
-326.800100806452
 30
0.0
 11
472.640312785517
 21
-325.3180499988832
 31
0.0
  0
LINE
  5
60
102
{ACAD_REACTORS
330
A0
102
}
330
48
100
AcDbEntity
  8
1
  6
Continuous
 62
     7
100
AcDbLine
 10
472.640312785517
 20
-325.3180499988832
 30
0.0
 11
472.6403127855169
 21
-327.0501008064521
 31
0.0
  0
LINE
  5
61
330
48
100
AcDbEntity
  8
1
  6
Continuous
 62
     7
100
AcDbLine
 10
465.2238775103755
 20
-326.9057365421107
 30
0.0
 11
473.6403127855169
 21
-322.0501008064521
 31
0.0
  0
LINE
  5
62
330
48
100
AcDbEntity
  8
1
  6
Continuous
 62
     7
100
AcDbLine
 10
473.6403127855169
 20
-322.0501008064521
 30
0.0
 11
482.0567480606584
 21
-326.9057365421107
 31
0.0
  0
LINE
  5
63
330
48
100
AcDbEntity
  8
1
  6
Continuous
 62
     7
100
AcDbLine
 10
482.0567480606584
 20
-327.1944650707935
 30
0.0
 11
473.640312785517
 21
-332.050100806452
 31
0.0
  0
LINE
  5
64
330
48
100
AcDbEntity
  8
1
  6
Continuous
 62
     7
100
AcDbLine
 10
473.640312785517
 20
-332.050100806452
 30
0.0
 11
465.2238775103755
 21
-327.1944650707935
 31
0.0
  0
LINE
  5
65
102
{ACAD_REACTORS
330
A0
102
}
330
48
100
AcDbEntity
  8
1
  6
Continuous
 62
     7
100
AcDbLine
 10
471.9736461188502
 20
-327.050100806452
 30
0.0
 11
471.9736461188502
 21
-323.8188834944175
 31
0.0
  0
LINE
  5
66
102
{ACAD_REACTORS
330
A0
102
}
330
48
100
AcDbEntity
  8
1
  6
Continuous
 62
     7
100
AcDbLine
 10
472.4680798024737
 20
-323.6864003881798
 30
0.0
 11
473.640312785517
 21
-325.7167674731188
 31
0.0
  0
LINE
  5
67
102
{ACAD_REACTORS
330
A0
102
}
330
48
100
AcDbEntity
  8
1
  6
Continuous
 62
     7
100
AcDbLine
 10
471.9736461188502
 20
-327.050100806452
 30
0.0
 11
471.9736461188502
 21
-328.7025157338191
 31
0.0
  0
LINE
  5
68
102
{ACAD_REACTORS
330
A0
102
}
330
48
100
AcDbEntity
  8
1
  6
Continuous
 62
     7
100
AcDbLine
 10
472.640312785517
 20
-328.7025157338191
 30
0.0
 11
472.6403127855169
 21
-327.0501008064521
 31
0.0
  0
LINE
  5
69
102
{ACAD_REACTORS
330
A0
102
}
330
48
100
AcDbEntity
  8
1
  6
Continuous
 62
     7
100
AcDbLine
 10
474.640312785517
 20
-327.050100806452
 30
0.0
 11
474.640312785517
 21
-330.2418317358503
 31
0.0
  0
LINE
  5
6A
102
{ACAD_REACTORS
330
A0
102
}
330
48
100
AcDbEntity
  8
1
  6
Continuous
 62
     7
100
AcDbLine
 10
475.3069794521836
 20
-330.2418317358503
 30
0.0
 11
475.3069794521836
 21
-323.8188834944175
 31
0.0
  0
LINE
  5
6B
102
{ACAD_REACTORS
330
A0
102
}
330
48
100
AcDbEntity
  8
1
  6
Continuous
 62
     7
100
AcDbLine
 10
474.8125457685603
 20
-323.6864003881798
 30
0.0
 11
473.640312785517
 21
-325.7167674731188
 31
0.0
  0
LINE
  5
6C
102
{ACAD_REACTORS
330
A1
102
}
330
48
100
AcDbEntity
  8
1
  6
Continuous
 62
     7
100
AcDbLine
 10
470.640312785517
 20
-329.2800796584195
 30
0.0
 11
470.640312785517
 21
-324.6276006462847
 31
0.0
  0
LINE
  5
6D
102
{ACAD_REACTORS
330
A1
102
}
330
48
100
AcDbEntity
  8
1
  6
Continuous
 62
     7
100
AcDbLine
 10
471.3069794521836
 20
-324.6276006462847
 30
0.0
 11
471.3069794521836
 21
-329.2800796584194
 31
0.0
  0
LINE
  5
6E
102
{ACAD_REACTORS
330
A1
102
}
330
48
100
AcDbEntity
  8
1
  6
Continuous
 62
     7
100
AcDbLine
 10
471.3069794521836
 20
-329.2800796584194
 30
0.0
 11
473.4735536033468
 21
-330.5300262840905
 31
0.0
  0
LINE
  5
6F
102
{ACAD_REACTORS
330
A1
102
}
330
48
100
AcDbEntity
  8
1
  6
Continuous
 62
     7
100
AcDbLine
 10
473.1404053010205
 20
-331.1074833414563
 30
0.0
 11
470.9738311498574
 21
-329.8575367157852
 31
0.0
  0
LINE
  5
70
102
{ACAD_REACTORS
330
A2
102
}
330
48
100
AcDbEntity
  8
1
  6
Continuous
 62
     7
100
AcDbLine
 10
469.9736461188502
 20
-325.3968314155154
 30
0.0
 11
469.9736461188502
 21
-328.5108488891887
 31
0.0
  0
LINE
  5
71
102
{ACAD_REACTORS
330
A2
102
}
330
48
100
AcDbEntity
  8
1
  6
Continuous
 62
     7
100
AcDbLine
 10
469.9736461188502
 20
-328.5108488891887
 30
0.0
 11
469.9736461188502
 21
-328.7033701973888
 31
0.0
  0
LINE
  5
72
102
{ACAD_REACTORS
330
A2
102
}
330
48
100
AcDbEntity
  8
1
  6
Continuous
 62
     7
100
AcDbLine
 10
469.3069794521836
 20
-328.7033701973888
 30
0.0
 11
469.3069794521836
 21
-325.3968314155154
 31
0.0
  0
LINE
  5
73
102
{ACAD_REACTORS
330
A3
102
}
330
48
100
AcDbEntity
  8
1
  6
Continuous
 62
     7
100
AcDbLine
 10
476.4735536033468
 20
-324.3388721176018
 30
0.0
 11
477.8068869366801
 21
-325.1081028868326
 31
0.0
  0
LINE
  5
74
102
{ACAD_REACTORS
330
A3
102
}
330
48
100
AcDbEntity
  8
1
  6
Continuous
 62
     7
100
AcDbLine
 10
477.4737386343538
 20
-325.6855599441983
 30
0.0
 11
476.640312785517
 21
-325.2047373391001
 31
0.0
  0
LINE
  5
75
102
{ACAD_REACTORS
330
A3
102
}
330
48
100
AcDbEntity
  8
1
  6
Continuous
 62
     7
100
AcDbLine
 10
476.640312785517
 20
-325.2047373391001
 30
0.0
 11
476.6403127855169
 21
-326.7167674731188
 31
0.0
  0
LINE
  5
76
102
{ACAD_REACTORS
330
A3
102
}
330
48
100
AcDbEntity
  8
1
  6
Continuous
 62
     7
100
AcDbLine
 10
476.6403127855169
 20
-326.7167674731188
 30
0.0
 11
477.640312785517
 21
-326.7167674731188
 31
0.0
  0
LINE
  5
77
102
{ACAD_REACTORS
330
A3
102
}
330
48
100
AcDbEntity
  8
1
  6
Continuous
 62
     7
100
AcDbLine
 10
477.640312785517
 20
-327.3834341397854
 30
0.0
 11
476.6403127855169
 21
-327.3834341397854
 31
0.0
  0
LINE
  5
78
102
{ACAD_REACTORS
330
A3
102
}
330
48
100
AcDbEntity
  8
1
  6
Continuous
 62
     7
100
AcDbLine
 10
476.6403127855169
 20
-327.3834341397854
 30
0.0
 11
476.640312785517
 21
-328.8954642738041
 31
0.0
  0
LINE
  5
79
102
{ACAD_REACTORS
330
A3
102
}
330
48
100
AcDbEntity
  8
1
  6
Continuous
 62
     7
100
AcDbLine
 10
476.640312785517
 20
-328.8954642738041
 30
0.0
 11
477.4737386343538
 21
-328.4146416687058
 31
0.0
  0
LINE
  5
7A
102
{ACAD_REACTORS
330
A3
102
}
330
48
100
AcDbEntity
  8
1
  6
Continuous
 62
     7
100
AcDbLine
 10
477.8068869366801
 20
-328.9920987260717
 30
0.0
 11
476.4735536033468
 21
-329.7613294953023
 31
0.0
  0
LINE
  5
7B
330
48
100
AcDbEntity
  8
1
  6
Continuous
 62
     7
100
AcDbLine
 10
302.9640120967744
 20
-314.5501008064521
 30
0.0
 11
486.9640120967744
 21
-314.5501008064521
 31
0.0
  0
LINE
  5
7C
330
48
100
AcDbEntity
  8
1
  6
Continuous
 62
     7
100
AcDbLine
 10
309.9640120967744
 20
-319.5501008064521
 30
0.0
 11
309.9640120967744
 21
-314.5501008064521
 31
0.0
  0
LINE
  5
7D
330
48
100
AcDbEntity
  8
1
  6
Continuous
 62
     7
100
AcDbLine
 10
327.9640120967744
 20
-319.5501008064521
 30
0.0
 11
327.9640120967744
 21
-314.5501008064521
 31
0.0
  0
LINE
  5
7E
330
48
100
AcDbEntity
  8
1
  6
Continuous
 62
     7
100
AcDbLine
 10
302.9640120967744
 20
-309.5501008064521
 30
0.0
 11
486.9640120967744
 21
-309.5501008064521
 31
0.0
  0
LINE
  5
7F
330
48
100
AcDbEntity
  8
1
  6
Continuous
 62
     7
100
AcDbLine
 10
309.9640120967744
 20
-314.5501008064521
 30
0.0
 11
309.9640120967744
 21
-309.5501008064521
 31
0.0
  0
LINE
  5
80
330
48
100
AcDbEntity
  8
1
  6
Continuous
 62
     7
100
AcDbLine
 10
327.9640120967744
 20
-314.5501008064521
 30
0.0
 11
327.9640120967744
 21
-309.5501008064521
 31
0.0
  0
LINE
  5
81
330
48
100
AcDbEntity
  8
1
  6
Continuous
 62
     7
100
AcDbLine
 10
302.9640120967744
 20
-304.550100806452
 30
0.0
 11
486.9640120967744
 21
-304.5501008064521
 31
0.0
  0
LINE
  5
82
330
48
100
AcDbEntity
  8
1
  6
Continuous
 62
     7
100
AcDbLine
 10
309.9640120967744
 20
-309.5501008064521
 30
0.0
 11
309.9640120967744
 21
-304.5501008064521
 31
0.0
  0
LINE
  5
83
330
48
100
AcDbEntity
  8
1
  6
Continuous
 62
     7
100
AcDbLine
 10
327.9640120967744
 20
-309.5501008064521
 30
0.0
 11
327.9640120967744
 21
-304.5501008064521
 31
0.0
  0
LINE
  5
84
330
48
100
AcDbEntity
  8
1
  6
Continuous
 62
     7
100
AcDbLine
 10
302.9640120967744
 20
-299.5501008064521
 30
0.0
 11
486.9640120967744
 21
-299.550100806452
 31
0.0
  0
LINE
  5
85
330
48
100
AcDbEntity
  8
1
  6
Continuous
 62
     7
100
AcDbLine
 10
309.9640120967744
 20
-304.5501008064521
 30
0.0
 11
309.9640120967744
 21
-299.5501008064521
 31
0.0
  0
LINE
  5
86
330
48
100
AcDbEntity
  8
1
  6
Continuous
 62
     7
100
AcDbLine
 10
327.9640120967744
 20
-304.5501008064521
 30
0.0
 11
327.9640120967744
 21
-299.5501008064521
 31
0.0
  0
LINE
  5
87
330
48
100
AcDbEntity
  8
1
  6
Continuous
 62
     7
100
AcDbLine
 10
199.9640120967741
 20
-150.550100806452
 30
0.0
 11
199.9640120967741
 21
-334.550100806452
 31
0.0
  0
LINE
  5
88
330
48
100
AcDbEntity
  8
1
  6
Continuous
 62
     7
100
AcDbLine
 10
302.9640120967744
 20
-319.5501008064521
 30
0.0
 11
486.9640120967744
 21
-319.5501008064521
 31
0.0
  0
LINE
  5
89
330
48
100
AcDbEntity
  8
1
  6
Continuous
 62
     7
100
AcDbLine
 10
302.9640120967744
 20
-334.5501008064522
 30
0.0
 11
302.9640120967744
 21
-299.5501008064521
 31
0.0
  0
ARC
  5
8A
102
{ACAD_REACTORS
330
A0
102
}
330
48
100
AcDbEntity
  8
1
  6
Continuous
 62
     7
100
AcDbCircle
 10
472.2386123313256
 20
-323.8188834944175
 30
0.0
 40
0.2649662124752827
100
AcDbArc
 50
30.00000000001821
 51
180.0
  0
ARC
  5
8B
102
{ACAD_REACTORS
330
A0
102
}
330
48
100
AcDbEntity
  8
1
  6
Continuous
 62
     7
100
AcDbCircle
 10
472.3069794521836
 20
-328.7025157338191
 30
0.0
 40
0.3333333333334281
100
AcDbArc
 50
180.0
 51
0.0
  0
ARC
  5
8C
102
{ACAD_REACTORS
330
A0
102
}
330
48
100
AcDbEntity
  8
1
  6
Continuous
 62
     7
100
AcDbCircle
 10
474.9736461188504
 20
-330.2418317358503
 30
0.0
 40
0.3333333333334281
100
AcDbArc
 50
180.0
 51
0.0
  0
ARC
  5
8D
102
{ACAD_REACTORS
330
A0
102
}
330
48
100
AcDbEntity
  8
1
  6
Continuous
 62
     7
100
AcDbCircle
 10
475.0420132397084
 20
-323.8188834944175
 30
0.0
 40
0.2649662124752012
100
AcDbArc
 50
0.0
 51
149.9999999999818
  0
ARC
  5
8E
102
{ACAD_REACTORS
330
A1
102
}
330
48
100
AcDbEntity
  8
1
  6
Continuous
 62
     7
100
AcDbCircle
 10
470.9736461188502
 20
-324.6276006462847
 30
0.0
 40
0.3333333333334281
100
AcDbArc
 50
0.0
 51
180.0
  0
ARC
  5
8F
102
{ACAD_REACTORS
330
A1
102
}
330
48
100
AcDbEntity
  8
1
  6
Continuous
 62
     7
100
AcDbCircle
 10
473.3069794521836
 20
-330.8187548127733
 30
0.0
 40
0.3333333333334125
100
AcDbArc
 50
240.0183606311761
 51
60.01836063114806
  0
ARC
  5
90
102
{ACAD_REACTORS
330
A2
102
}
330
48
100
AcDbEntity
  8
1
  6
Continuous
 62
     7
100
AcDbCircle
 10
469.640312785517
 20
-325.3968314155154
 30
0.0
 40
0.3333333333332007
100
AcDbArc
 50
0.0
 51
180.0
  0
ARC
  5
91
102
{ACAD_REACTORS
330
A2
102
}
330
48
100
AcDbEntity
  8
1
  6
Continuous
 62
     7
100
AcDbCircle
 10
469.640312785517
 20
-328.7033701973888
 30
0.0
 40
0.3333333333333712
100
AcDbArc
 50
180.0
 51
0.0
  0
ARC
  5
92
102
{ACAD_REACTORS
330
A3
102
}
330
48
100
AcDbEntity
  8
1
  6
Continuous
 62
     7
100
AcDbCircle
 10
477.640312785517
 20
-325.3968314155154
 30
0.0
 40
0.3333333333333425
100
AcDbArc
 50
240.0183606311578
 51
60.01836063115653
  0
ARC
  5
93
102
{ACAD_REACTORS
330
A3
102
}
330
48
100
AcDbEntity
  8
1
  6
Continuous
 62
     7
100
AcDbCircle
 10
477.640312785517
 20
-327.050100806452
 30
0.0
 40
0.3333333333333712
100
AcDbArc
 50
270.0
 51
90.0
  0
ARC
  5
94
102
{ACAD_REACTORS
330
A3
102
}
330
48
100
AcDbEntity
  8
1
  6
Continuous
 62
     7
100
AcDbCircle
 10
477.640312785517
 20
-328.7033701973888
 30
0.0
 40
0.3333333333333141
100
AcDbArc
 50
299.9816393688337
 51
119.9816393688373
  0
ARC
  5
95
102
{ACAD_REACTORS
330
A0
102
}
330
48
100
AcDbEntity
  8
1
  6
Continuous
 62
     7
100
AcDbCircle
 10
473.640312785517
 20
-326.7167674731188
 30
0.0
 40
0.1666666666666797
100
AcDbArc
 50
209.9999999999447
 51
330.0000000000455
  0
ARC
  5
96
102
{ACAD_REACTORS
330
A1
102
}
330
48
100
AcDbEntity
  8
1
  6
Continuous
 62
     7
100
AcDbCircle
 10
471.3069794521836
 20
-329.2800796584194
 30
0.0
 40
0.6666666666666288
100
AcDbArc
 50
180.0000000000049
 51
240.0183606311663
  0
ARC
  5
97
330
48
100
AcDbEntity
  8
1
  6
Continuous
 62
     7
100
AcDbCircle
 10
465.3071645859571
 20
-327.050100806452
 30
0.0
 40
0.166666666666587
100
AcDbArc
 50
119.9816393688702
 51
240.0183606311591
  0
ARC
  5
98
330
48
100
AcDbEntity
  8
1
  6
Continuous
 62
     7
100
AcDbCircle
 10
481.9734609850769
 20
-327.050100806452
 30
0.0
 40
0.1666666666666779
100
AcDbArc
 50
299.981639368807
 51
60.01836063116369
  0
ARC
  5
99
102
{ACAD_REACTORS
330
A3
102
}
330
48
100
AcDbEntity
  8
1
  6
Continuous
 62
     7
100
AcDbCircle
 10
476.3069794521836
 20
-324.6276006462847
 30
0.0
 40
0.3333333333333425
100
AcDbArc
 50
60.01836063115783
 51
180.0
  0
ARC
  5
9A
102
{ACAD_REACTORS
330
A3
102
}
330
48
100
AcDbEntity
  8
1
  6
Continuous
 62
     7
100
AcDbCircle
 10
476.3069794521836
 20
-329.4726009666194
 30
0.0
 40
0.3333333333332007
100
AcDbArc
 50
180.0
 51
299.9816393688421
  0
MTEXT
  5
9C
330
48
100
AcDbEntity
  8
1
 62
     7
100
AcDbMText
 10
346.464012096774
 20
-145.5501008064519
 30
0.0
 40
4.0
 41
0.0
 71
     5
 72
     1
  1
Diritti riservati      All rights reserved
  7
CONVERTER_11
 73
     1
 44
1.32052821128451
  0
MTEXT
  5
9D
330
48
100
AcDbEntity
  8
1
 62
     7
100
AcDbMText
 10
304.9640120967744
 20
-323.2894613856961
 30
0.0
 40
3.0
 41
0.0
 71
     4
 72
     1
  1
Date
  7
CONVERTER_11
 73
     1
 44
1.32052821128451
  0
MTEXT
  5
9E
330
48
100
AcDbEntity
  8
1
 62
     7
100
AcDbMText
 10
304.9640120967744
 20
-330.800100806452
 30
0.0
 40
3.0
 41
0.0
 71
     4
 72
     1
  1
Sign.
  7
CONVERTER_11
 73
     1
 44
1.32052821128451
  0
MTEXT
  5
9F
330
48
100
AcDbEntity
  8
1
 62
     7
100
AcDbMText
 10
451.640312785517
 20
-323.2894613856961
 30
0.0
 40
3.0
 41
0.0
 71
     5
 72
     1
  1
Scale
  7
CONVERTER_11
 73
     1
 44
1.32052821128451
  0
HATCH
  5
A0
330
48
100
AcDbEntity
  8
1
  6
Continuous
 62
     7
100
AcDbHatch
 10
0.0
 20
0.0
 30
0.0
210
0.0
220
0.0
230
1.0
  2
SOLID
 70
     1
 71
     1
 91
        1
 92
        1
 93
       16
 72
     2
 10
472.2386123313256
 20
-323.8188834944175
 40
0.2649662124752827
 50
30.00000000001821
 51
180.0
 73
     1
 72
     1
 10
471.9736461188502
 20
-323.8188834944175
 11
471.9736461188502
 21
-327.050100806452
 72
     1
 10
471.9736461188502
 20
-327.050100806452
 11
471.9736461188502
 21
-328.7025157338191
 72
     2
 10
472.3069794521836
 20
-328.7025157338191
 40
0.3333333333334281
 50
180.0
 51
360.0
 73
     1
 72
     1
 10
472.640312785517
 20
-328.7025157338191
 11
472.6403127855169
 21
-327.0501008064521
 72
     1
 10
472.6403127855169
 20
-327.0501008064521
 11
472.640312785517
 21
-325.3180499988832
 72
     1
 10
472.640312785517
 20
-325.3180499988832
 11
473.4959752182195
 21
-326.800100806452
 72
     2
 10
473.640312785517
 20
-326.7167674731188
 40
0.1666666666666797
 50
209.9999999999447
 51
330.0000000000455
 73
     1
 72
     1
 10
473.7846503528144
 20
-326.800100806452
 11
474.640312785517
 21
-325.3180499988832
 72
     1
 10
474.640312785517
 20
-325.3180499988832
 11
474.640312785517
 21
-327.050100806452
 72
     1
 10
474.640312785517
 20
-327.050100806452
 11
474.640312785517
 21
-330.2418317358503
 72
     2
 10
474.9736461188504
 20
-330.2418317358503
 40
0.3333333333334281
 50
180.0
 51
360.0
 73
     1
 72
     1
 10
475.3069794521836
 20
-330.2418317358503
 11
475.3069794521836
 21
-323.8188834944175
 72
     2
 10
475.0420132397084
 20
-323.8188834944175
 40
0.2649662124752012
 50
0.0
 51
149.9999999999818
 73
     1
 72
     1
 10
474.8125457685603
 20
-323.6864003881798
 11
473.640312785517
 21
-325.7167674731188
 72
     1
 10
473.640312785517
 20
-325.7167674731188
 11
472.4680798024737
 21
-323.6864003881798
 97
       16
330
6B
330
8D
330
6A
330
8C
330
69
330
5D
330
5E
330
95
330
5F
330
60
330
68
330
8B
330
67
330
65
330
8A
330
66
 75
     0
 76
     1
 98
        1
 10
0.0
 20
0.0
  0
HATCH
  5
A1
330
48
100
AcDbEntity
  8
1
  6
Continuous
 62
     7
100
AcDbHatch
 10
0.0
 20
0.0
 30
0.0
210
0.0
220
0.0
230
1.0
  2
SOLID
 70
     1
 71
     1
 91
        1
 92
        1
 93
        7
 72
     1
 10
471.3069794521836
 20
-324.6276006462847
 11
471.3069794521836
 21
-329.2800796584194
 72
     1
 10
471.3069794521836
 20
-329.2800796584194
 11
473.4735536033468
 21
-330.5300262840905
 72
     2
 10
473.3069794521836
 20
-330.8187548127733
 40
0.3333333333334125
 50
299.981639368852
 51
479.9816393688239
 73
     0
 72
     1
 10
473.1404053010205
 20
-331.1074833414563
 11
470.9738311498574
 21
-329.8575367157852
 72
     2
 10
471.3069794521836
 20
-329.2800796584194
 40
0.6666666666666288
 50
119.9816393688337
 51
179.9999999999951
 73
     0
 72
     1
 10
470.640312785517
 20
-329.2800796584195
 11
470.640312785517
 21
-324.6276006462847
 72
     2
 10
470.9736461188502
 20
-324.6276006462847
 40
0.3333333333334281
 50
180.0
 51
360.0
 73
     0
 97
        7
330
6D
330
6E
330
8F
330
6F
330
96
330
6C
330
8E
 75
     0
 76
     1
 98
        1
 10
0.0
 20
0.0
  0
HATCH
  5
A2
330
48
100
AcDbEntity
  8
1
  6
Continuous
 62
     7
100
AcDbHatch
 10
0.0
 20
0.0
 30
0.0
210
0.0
220
0.0
230
1.0
  2
SOLID
 70
     1
 71
     1
 91
        1
 92
        1
 93
        5
 72
     1
 10
469.9736461188502
 20
-325.3968314155154
 11
469.9736461188502
 21
-328.5108488891887
 72
     1
 10
469.9736461188502
 20
-328.5108488891887
 11
469.9736461188502
 21
-328.7033701973888
 72
     2
 10
469.640312785517
 20
-328.7033701973888
 40
0.3333333333333712
 50
0.0
 51
180.0
 73
     0
 72
     1
 10
469.3069794521836
 20
-328.7033701973888
 11
469.3069794521836
 21
-325.3968314155154
 72
     2
 10
469.640312785517
 20
-325.3968314155154
 40
0.3333333333332007
 50
180.0
 51
360.0
 73
     0
 97
        5
330
70
330
71
330
91
330
72
330
90
 75
     0
 76
     1
 98
        1
 10
0.0
 20
0.0
  0
HATCH
  5
A3
330
48
100
AcDbEntity
  8
1
  6
Continuous
 62
     7
100
AcDbHatch
 10
0.0
 20
0.0
 30
0.0
210
0.0
220
0.0
230
1.0
  2
SOLID
 70
     1
 71
     1
 91
        1
 92
        1
 93
       14
 72
     1
 10
477.4737386343538
 20
-325.6855599441983
 11
476.640312785517
 21
-325.2047373391001
 72
     1
 10
476.640312785517
 20
-325.2047373391001
 11
476.6403127855169
 21
-326.7167674731188
 72
     1
 10
476.6403127855169
 20
-326.7167674731188
 11
477.640312785517
 21
-326.7167674731188
 72
     2
 10
477.640312785517
 20
-327.050100806452
 40
0.3333333333333712
 50
270.0
 51
450.0
 73
     0
 72
     1
 10
477.640312785517
 20
-327.3834341397854
 11
476.6403127855169
 21
-327.3834341397854
 72
     1
 10
476.6403127855169
 20
-327.3834341397854
 11
476.640312785517
 21
-328.8954642738041
 72
     1
 10
476.640312785517
 20
-328.8954642738041
 11
477.4737386343538
 21
-328.4146416687058
 72
     2
 10
477.640312785517
 20
-328.7033701973888
 40
0.3333333333333141
 50
240.0183606311627
 51
420.0183606311663
 73
     0
 72
     1
 10
477.8068869366801
 20
-328.9920987260717
 11
476.4735536033468
 21
-329.7613294953023
 72
     2
 10
476.3069794521836
 20
-329.4726009666194
 40
0.3333333333332007
 50
60.01836063115783
 51
180.0
 73
     0
 72
     1
 10
475.9736461188504
 20
-329.4726009666194
 11
475.9736461188504
 21
-324.6276006462847
 72
     2
 10
476.3069794521836
 20
-324.6276006462847
 40
0.3333333333333425
 50
180.0
 51
299.9816393688421
 73
     0
 72
     1
 10
476.4735536033468
 20
-324.3388721176018
 11
477.8068869366801
 21
-325.1081028868326
 72
     2
 10
477.640312785517
 20
-325.3968314155154
 40
0.3333333333333425
 50
299.9816393688434
 51
479.9816393688421
 73
     0
 97
       14
330
73
330
99
330
5C
330
9A
330
7A
330
94
330
79
330
78
330
77
330
93
330
76
330
75
330
74
330
92
 75
     0
 76
     1
 98
        1
 10
0.0
 20
0.0
  0
ENDBLK
  5
4A
330
48
100
AcDbEntity
  8
0
100
AcDbBlockEnd
  0
BLOCK
  5
4D
330
4B
100
AcDbEntity
  8
0
100
AcDbBlockBegin
  2
A4_oriz
 70
     0
 10
983.9280241935487
 20
-679.1002016129041
 30
0.0
  3
A4_oriz
  1

  0
INSERT
  5
4C
330
4B
100
AcDbEntity
  8
1
100
AcDbBlockReference
  2
_formato_A4
 10
983.9280241935488
 20
-679.100201612904
 30
0.0
  0
ENDBLK
  5
4E
330
4B
100
AcDbEntity
  8
0
100
AcDbBlockEnd
  0
BLOCK
  5
19C
330
194
100
AcDbEntity
  8
0
100
AcDbBlockBegin
  2
*D3
 70
     1
 10
0.0
 20
0.0
 30
0.0
  3
*D3
  1

  0
LINE
  5
195
330
194
100
AcDbEntity
  8
1
  6
Continuous
 62
     2
100
AcDbLine
 10
741.4915905695168
 20
-608.9835129280757
 30
0.0
 11
834.9915905695168
 21
-608.9835129280757
 31
0.0
  0
LINE
  5
196
330
194
100
AcDbEntity
  8
1
  6
Continuous
 62
     2
100
AcDbLine
 10
834.9915905695168
 20
-599.4835129280757
 30
0.0
 11
834.9915905695168
 21
-609.9835129280757
 31
0.0
  0
LINE
  5
197
330
194
100
AcDbEntity
  8
1
  6
Continuous
 62
     2
100
AcDbLine
 10
741.4915905695168
 20
-599.4835129280757
 30
0.0
 11
741.4915905695168
 21
-609.9835129280757
 31
0.0
  0
SOLID
  5
198
330
194
100
AcDbEntity
  8
1
 62
     2
100
AcDbTrace
 10
744.4915905695168
 20
-608.5885554353135
 30
0.0
 11
744.4915905695168
 21
-609.3784704208379
 31
0.0
 12
741.4915905695168
 22
-608.9835129280757
 32
0.0
 13
741.4915905695168
 23
-608.9835129280757
 33
0.0
  0
SOLID
  5
199
330
194
100
AcDbEntity
  8
1
 62
     2
100
AcDbTrace
 10
831.9915905695168
 20
-609.3784704208379
 30
0.0
 11
831.9915905695168
 21
-608.5885554353135
 31
0.0
 12
834.9915905695168
 22
-608.9835129280757
 32
0.0
 13
834.9915905695168
 23
-608.9835129280757
 33
0.0
  0
MTEXT
  5
19B
330
194
100
AcDbEntity
  8
1
 62
     4
100
AcDbMText
 10
784.1165905695168
 20
-606.6835129280757
 30
0.0
 40
3.0
 41
0.0
 71
     7
 72
     1
  1
93,5
  7
CONVERTER_13
 11
0.9999999999970619
 21
2.424068405545306E-6
 31
0.0
 73
     1
 44
0.60024009603842
  0
ENDBLK
  5
19D
330
194
100
AcDbEntity
  8
0
100
AcDbBlockEnd
  0
BLOCK
  5
1A7
330
1A0
100
AcDbEntity
  8
0
100
AcDbBlockBegin
  2
*D4
 70
     1
 10
0.0
 20
0.0
 30
0.0
  3
*D4
  1

  0
LINE
  5
1A1
330
1A0
100
AcDbEntity
  8
1
  6
Continuous
 62
     2
100
AcDbLine
 10
836.854246386232
 20
-524.0509851028244
 30
0.0
 11
842.6084768532071
 21
-555.530010598626
 31
0.0
  0
LINE
  5
1A2
330
1A0
100
AcDbEntity
  8
1
  6
Continuous
 62
     2
100
AcDbLine
 10
833.2633246583117
 20
-557.23826422565
 30
0.0
 11
843.5921770842488
 21
-555.3501944273603
 31
0.0
  0
LINE
  5
1A3
330
1A0
100
AcDbEntity
  8
1
  6
Continuous
 62
     2
100
AcDbLine
 10
827.5090941913367
 20
-525.7592387298484
 30
0.0
 11
837.8379466172737
 21
-523.8711689315587
 31
0.0
  0
SOLID
  5
1A4
330
1A0
100
AcDbEntity
  8
1
 62
     2
100
AcDbTrace
 10
837.7822146769108
 20
-526.9310660517881
 30
0.0
 11
837.0051751231472
 21
-527.0731055401104
 31
0.0
 12
836.854246386232
 22
-524.0509851028244
 32
0.0
 13
836.854246386232
 23
-524.0509851028244
 33
0.0
  0
SOLID
  5
1A5
330
1A0
100
AcDbEntity
  8
1
 62
     2
100
AcDbTrace
 10
841.6805085625283
 20
-552.6499296496622
 30
0.0
 11
842.457548116292
 21
-552.5078901613399
 31
0.0
 12
842.6084768532071
 22
-555.530010598626
 32
0.0
 13
842.6084768532071
 23
-555.530010598626
 33
0.0
  0
MTEXT
  5
1A6
330
1A0
100
AcDbEntity
  8
1
 62
     4
100
AcDbMText
 10
841.2024694491095
 20
-536.7158528705189
 30
0.0
 40
3.0
 41
0.0
 71
     7
 72
     1
  1
\C4;M\C4;32
  7
CONVERTER_13
 11
0.1798161712656915
 21
-0.9837002310416255
 31
0.0
 73
     1
 44
0.60024009603842
  0
ENDBLK
  5
1A8
330
1A0
100
AcDbEntity
  8
0
100
AcDbBlockEnd
  0
BLOCK
  5
1B2
330
1AB
100
AcDbEntity
  8
0
100
AcDbBlockBegin
  2
*D5
 70
     1
 10
0.0
 20
0.0
 30
0.0
  3
*D5
  1

  0
LINE
  5
1AC
330
1AB
100
AcDbEntity
  8
1
  6
Continuous
 62
     2
100
AcDbLine
 10
874.0905897503924
 20
-598.9735129280704
 30
0.0
 11
874.0905897503924
 21
-522.9735129280705
 31
0.0
  0
LINE
  5
1AD
330
1AB
100
AcDbEntity
  8
1
  6
Continuous
 62
     2
100
AcDbLine
 10
892.091589750399
 20
-522.9735129280705
 30
0.0
 11
873.0905897503924
 21
-522.9735129280705
 31
0.0
  0
LINE
  5
1AE
330
1AB
100
AcDbEntity
  8
1
  6
Continuous
 62
     2
100
AcDbLine
 10
889.5915897503908
 20
-598.9735129280704
 30
0.0
 11
873.0905897503924
 21
-598.9735129280704
 31
0.0
  0
SOLID
  5
1AF
330
1AB
100
AcDbEntity
  8
1
 62
     2
100
AcDbTrace
 10
873.6956322576302
 20
-595.9735129280704
 30
0.0
 11
874.4855472431545
 21
-595.9735129280704
 31
0.0
 12
874.0905897503924
 22
-598.9735129280704
 32
0.0
 13
874.0905897503924
 23
-598.9735129280704
 33
0.0
  0
SOLID
  5
1B0
330
1AB
100
AcDbEntity
  8
1
 62
     2
100
AcDbTrace
 10
874.4855472431545
 20
-525.9735129280705
 30
0.0
 11
873.6956322576302
 21
-525.9735129280705
 31
0.0
 12
874.0905897503924
 22
-522.9735129280705
 32
0.0
 13
874.0905897503924
 23
-522.9735129280705
 33
0.0
  0
MTEXT
  5
1B1
330
1AB
100
AcDbEntity
  8
1
 62
     4
100
AcDbMText
 10
872.0905897503924
 20
-563.2235129280705
 30
0.0
 40
3.0
 41
0.0
 71
     7
 72
     1
  1
76
  7
CONVERTER_13
 11
0.0
 21
1.0
 31
0.0
 73
     1
 44
0.60024009603842
  0
ENDBLK
  5
1B3
330
1AB
100
AcDbEntity
  8
0
100
AcDbBlockEnd
  0
BLOCK
  5
1BD
330
1B6
100
AcDbEntity
  8
0
100
AcDbBlockBegin
  2
*D6
 70
     1
 10
0.0
 20
0.0
 30
0.0
  3
*D6
  1

  0
LINE
  5
1B7
330
1B6
100
AcDbEntity
  8
1
  6
Continuous
 62
     2
100
AcDbLine
 10
890.0915897503908
 20
-608.9835129280757
 30
0.0
 11
933.0915897503908
 21
-608.9835129280757
 31
0.0
  0
LINE
  5
1B8
330
1B6
100
AcDbEntity
  8
1
  6
Continuous
 62
     2
100
AcDbLine
 10
933.0915897503908
 20
-599.4835129280754
 30
0.0
 11
933.0915897503908
 21
-609.9835129280757
 31
0.0
  0
LINE
  5
1B9
330
1B6
100
AcDbEntity
  8
1
  6
Continuous
 62
     2
100
AcDbLine
 10
890.0915897503908
 20
-599.4835129280704
 30
0.0
 11
890.0915897503908
 21
-609.9835129280757
 31
0.0
  0
SOLID
  5
1BA
330
1B6
100
AcDbEntity
  8
1
 62
     2
100
AcDbTrace
 10
893.0915897503908
 20
-608.5885554353135
 30
0.0
 11
893.0915897503908
 21
-609.3784704208379
 31
0.0
 12
890.0915897503908
 22
-608.9835129280757
 32
0.0
 13
890.0915897503908
 23
-608.9835129280757
 33
0.0
  0
SOLID
  5
1BB
330
1B6
100
AcDbEntity
  8
1
 62
     2
100
AcDbTrace
 10
930.0915897503908
 20
-609.3784704208379
 30
0.0
 11
930.0915897503908
 21
-608.5885554353135
 31
0.0
 12
933.0915897503908
 22
-608.9835129280757
 32
0.0
 13
933.0915897503908
 23
-608.9835129280757
 33
0.0
  0
MTEXT
  5
1BC
330
1B6
100
AcDbEntity
  8
1
 62
     4
100
AcDbMText
 10
909.3415897503908
 20
-606.9835129280757
 30
0.0
 40
3.0
 41
0.0
 71
     7
 72
     1
  1
43
  7
CONVERTER_13
 11
0.9999999999970619
 21
2.424068405545306E-6
 31
0.0
 73
     1
 44
0.60024009603842
  0
ENDBLK
  5
1BE
330
1B6
100
AcDbEntity
  8
0
100
AcDbBlockEnd
  0
ENDSEC
  0
SECTION
  2
ENTITIES
  0
INSERT
  5
4F
330
1F
100
AcDbEntity
  8
0
100
AcDbBlockReference
  2
A4_oriz
 10
983.9280241935487
 20
-679.1002016129041
 30
0.0
  0
LINE
  5
A4
330
1F
100
AcDbEntity
  8
0
  6
Continuous
 62
     7
100
AcDbLine
 10
741.4915905695168
 20
-598.9835129280757
 30
0.0
 11
834.9915905695168
 21
-598.9835129280757
 31
0.0
  0
LINE
  5
A5
330
1F
100
AcDbEntity
  8
Sichtbare_Kanten_TC_020513_DIN_
  6
Continuous
 62
     7
100
AcDbLine
 10
790.8665905695168
 20
-548.0689458205966
 30
0.0
 11
790.8665905695168
 21
-542.8780800355626
 31
0.0
  0
LINE
  5
A6
330
1F
100
AcDbEntity
  8
Sichtbare_Kanten_TC_020513_DIN_
  6
Continuous
 62
     7
100
AcDbLine
 10
793.6789864895745
 20
-547.0956884922876
 30
0.0
 11
791.4289864895745
 21
-548.3937654153647
 31
0.0
  0
LINE
  5
A7
330
1F
100
AcDbEntity
  8
Sichtbare_Kanten_TC_020513_DIN_
  6
Continuous
 62
     7
100
AcDbLine
 10
791.6165905695168
 20
-547.4196670411786
 30
0.0
 11
793.3041946494577
 21
-546.4460493027516
 31
0.0
  0
LINE
  5
A8
330
1F
100
AcDbEntity
  8
Sichtbare_Kanten_TC_020513_DIN_
  6
Continuous
 62
     7
100
AcDbLine
 10
791.6165905695168
 20
-545.8485129280796
 30
0.0
 11
791.6165905695168
 21
-547.4196670411786
 31
0.0
  0
LINE
  5
A9
330
1F
100
AcDbEntity
  8
Sichtbare_Kanten_TC_020513_DIN_
  6
Continuous
 62
     7
100
AcDbLine
 10
793.4915905695168
 20
-545.8485129280796
 30
0.0
 11
791.6165905695168
 21
-545.8485129280796
 31
0.0
  0
LINE
  5
AA
330
1F
100
AcDbEntity
  8
Sichtbare_Kanten_TC_020513_DIN_
  6
Continuous
 62
     7
100
AcDbLine
 10
791.6165905695168
 20
-545.0985129280796
 30
0.0
 11
793.4915905695168
 21
-545.0985129280796
 31
0.0
  0
LINE
  5
AB
330
1F
100
AcDbEntity
  8
Sichtbare_Kanten_TC_020513_DIN_
  6
Continuous
 62
     7
100
AcDbLine
 10
791.6165905695168
 20
-543.5273588149796
 30
0.0
 11
791.6165905695168
 21
-545.0985129280796
 31
0.0
  0
LINE
  5
AC
330
1F
100
AcDbEntity
  8
Sichtbare_Kanten_TC_020513_DIN_
  6
Continuous
 62
     7
100
AcDbLine
 10
793.3041946494577
 20
-544.5009765534076
 30
0.0
 11
791.6165905695168
 21
-543.5273588149796
 31
0.0
  0
LINE
  5
AD
330
1F
100
AcDbEntity
  8
Sichtbare_Kanten_TC_020513_DIN_
  6
Continuous
 62
     7
100
AcDbLine
 10
791.4289864895745
 20
-542.5532604407947
 30
0.0
 11
793.6789864895745
 21
-543.8513373638716
 31
0.0
  0
LINE
  5
AE
330
1F
100
AcDbEntity
  8
Sichtbare_Kanten_TC_020513_DIN_
  6
Continuous
 62
     7
100
AcDbLine
 10
783.2915905695165
 20
-547.1602919744427
 30
0.0
 11
783.2915905695165
 21
-543.7867338817166
 31
0.0
  0
LINE
  5
AF
330
1F
100
AcDbEntity
  8
Sichtbare_Kanten_TC_020513_DIN_
  6
Continuous
 62
     7
100
AcDbLine
 10
784.0415905695165
 20
-543.7867338817166
 30
0.0
 11
784.0415905695165
 21
-547.1602919744427
 31
0.0
  0
LINE
  5
B0
330
1F
100
AcDbEntity
  8
Sichtbare_Kanten_TC_020513_DIN_
  6
Continuous
 62
     7
100
AcDbLine
 10
779.2420071205065
 20
-545.4735129280796
 30
0.0
 11
788.2415905695168
 21
-550.6655803025087
 31
0.0
  0
LINE
  5
B1
330
1F
100
AcDbEntity
  8
Sichtbare_Kanten_TC_020513_DIN_
  6
Continuous
 62
     7
100
AcDbLine
 10
788.2415905695168
 20
-550.6655803025087
 30
0.0
 11
797.2411740185257
 21
-545.4735129280796
 31
0.0
  0
LINE
  5
B2
330
1F
100
AcDbEntity
  8
Sichtbare_Kanten_TC_020513_DIN_
  6
Continuous
 62
     7
100
AcDbLine
 10
797.2411740185257
 20
-545.4735129280796
 30
0.0
 11
788.2415905695168
 21
-540.2814455536507
 31
0.0
  0
LINE
  5
B3
330
1F
100
AcDbEntity
  8
Sichtbare_Kanten_TC_020513_DIN_
  6
Continuous
 62
     7
100
AcDbLine
 10
788.2415905695168
 20
-540.2814455536507
 30
0.0
 11
779.2420071205065
 21
-545.4735129280796
 31
0.0
  0
LINE
  5
B4
330
1F
100
AcDbEntity
  8
Sichtbare_Kanten_TC_020513_DIN_
  6
Continuous
 62
     7
100
AcDbLine
 10
788.2415905695168
 20
-551.0985129280796
 30
0.0
 11
778.4915905695168
 21
-545.4735129280796
 31
0.0
  0
LINE
  5
B5
330
1F
100
AcDbEntity
  8
Sichtbare_Kanten_TC_020513_DIN_
  6
Continuous
 62
     7
100
AcDbLine
 10
797.9915905695168
 20
-545.4735129280796
 30
0.0
 11
788.2415905695168
 21
-551.0985129280796
 31
0.0
  0
LINE
  5
B6
330
1F
100
AcDbEntity
  8
Sichtbare_Kanten_TC_020513_DIN_
  6
Continuous
 62
     7
100
AcDbLine
 10
788.2415905695168
 20
-539.8485129280796
 30
0.0
 11
797.9915905695168
 21
-545.4735129280796
 31
0.0
  0
LINE
  5
B7
330
1F
100
AcDbEntity
  8
Sichtbare_Kanten_TC_020513_DIN_
  6
Continuous
 62
     7
100
AcDbLine
 10
778.4915905695168
 20
-545.4735129280796
 30
0.0
 11
788.2415905695168
 21
-539.8485129280796
 31
0.0
  0
LINE
  5
B8
330
1F
100
AcDbEntity
  8
Sichtbare_Kanten_TC_020513_DIN_
  6
Continuous
 62
     7
100
AcDbLine
 10
784.7915905695165
 20
-548.0256765898276
 30
0.0
 11
784.7915905695165
 21
-542.9213492663316
 31
0.0
  0
LINE
  5
B9
330
1F
100
AcDbEntity
  8
Sichtbare_Kanten_TC_020513_DIN_
  6
Continuous
 62
     7
100
AcDbLine
 10
788.0541946494577
 20
-550.1245346461337
 30
0.0
 11
784.9791946494577
 21
-548.3504961845956
 31
0.0
  0
LINE
  5
BA
330
1F
100
AcDbEntity
  8
Sichtbare_Kanten_TC_020513_DIN_
  6
Continuous
 62
     7
100
AcDbLine
 10
785.5415905695165
 20
-547.8090901181017
 30
0.0
 11
788.4289864895745
 21
-549.4748954565977
 31
0.0
  0
LINE
  5
BB
330
1F
100
AcDbEntity
  8
Sichtbare_Kanten_TC_020513_DIN_
  6
Continuous
 62
     7
100
AcDbLine
 10
785.5415905695165
 20
-542.9213492663316
 30
0.0
 11
785.5415905695165
 21
-547.8090901181017
 31
0.0
  0
LINE
  5
BC
330
1F
100
AcDbEntity
  8
Sichtbare_Kanten_TC_020513_DIN_
  6
Continuous
 62
     7
100
AcDbLine
 10
789.3665905695168
 20
-543.1699331143936
 30
0.0
 11
788.2415905695168
 21
-544.7235129280796
 31
0.0
  0
LINE
  5
BD
330
1F
100
AcDbEntity
  8
Sichtbare_Kanten_TC_020513_DIN_
  6
Continuous
 62
     7
100
AcDbLine
 10
789.3665905695168
 20
-548.9343304359807
 30
0.0
 11
789.3665905695168
 21
-543.1699331143936
 31
0.0
  0
LINE
  5
BE
330
1F
100
AcDbEntity
  8
Sichtbare_Kanten_TC_020513_DIN_
  6
Continuous
 62
     7
100
AcDbLine
 10
790.1165905695168
 20
-542.0126954201776
 30
0.0
 11
790.1165905695168
 21
-548.9343304359807
 31
0.0
  0
LINE
  5
BF
330
1F
100
AcDbEntity
  8
Sichtbare_Kanten_TC_020513_DIN_
  6
Continuous
 62
     7
100
AcDbLine
 10
788.2415905695168
 20
-543.4447574154387
 30
0.0
 11
789.4378617100258
 21
-541.7927550193587
 31
0.0
  0
LINE
  5
C0
330
1F
100
AcDbEntity
  8
Sichtbare_Kanten_TC_020513_DIN_
  6
Continuous
 62
     7
100
AcDbLine
 10
787.0453194290067
 20
-541.7927550193587
 30
0.0
 11
788.2415905695168
 21
-543.4447574154387
 31
0.0
  0
LINE
  5
C1
330
1F
100
AcDbEntity
  8
Sichtbare_Kanten_TC_020513_DIN_
  6
Continuous
 62
     7
100
AcDbLine
 10
786.3665905695168
 20
-547.1602919744427
 30
0.0
 11
786.3665905695168
 21
-542.0126954201776
 31
0.0
  0
LINE
  5
C2
330
1F
100
AcDbEntity
  8
Sichtbare_Kanten_TC_020513_DIN_
  6
Continuous
 62
     7
100
AcDbLine
 10
787.1165905695168
 20
-543.1699331143936
 30
0.0
 11
787.1165905695168
 21
-547.1602919744427
 31
0.0
  0
LINE
  5
C3
330
1F
100
AcDbEntity
  8
Sichtbare_Kanten_TC_020513_DIN_
  6
Continuous
 62
     7
100
AcDbLine
 10
788.2415905695168
 20
-544.7235129280796
 30
0.0
 11
787.1165905695168
 21
-543.1699331143936
 31
0.0
  0
LINE
  5
C4
330
1F
100
AcDbEntity
  8
0
  6
Continuous
 62
     7
100
AcDbLine
 10
939.092589750391
 20
-594.873512928076
 30
0.0
 11
939.0925897503919
 21
-590.073512928076
 31
0.0
  0
LINE
  5
C5
330
1F
100
AcDbEntity
  8
0
  6
Continuous
 62
     7
100
AcDbLine
 10
913.0915897503917
 20
-586.7245129280731
 30
0.0
 11
927.091589667071
 21
-586.7235129287029
 31
0.0
  0
LINE
  5
C6
330
1F
100
AcDbEntity
  8
0
  6
Continuous
 62
     7
100
AcDbLine
 10
910.0915897503917
 20
-585.9235129280727
 30
0.0
 11
910.0915897503917
 21
-586.0235129280727
 31
0.0
  0
LINE
  5
C7
330
1F
100
AcDbEntity
  8
0
  6
Continuous
 62
     7
100
AcDbLine
 10
910.0915897503917
 20
-586.0235129280727
 30
0.0
 11
910.0915897503917
 21
-586.7245129280727
 31
0.0
  0
LINE
  5
C8
330
1F
100
AcDbEntity
  8
0
  6
Continuous
 62
     7
100
AcDbLine
 10
910.0915897503917
 20
-585.2225129280727
 30
0.0
 11
910.0915897503917
 21
-585.9235129280727
 31
0.0
  0
LINE
  5
C9
330
1F
100
AcDbEntity
  8
0
  6
Continuous
 62
     7
100
AcDbLine
 10
896.0905897503924
 20
-586.7235129280712
 30
0.0
 11
890.0915897503917
 21
-586.7235129280704
 31
0.0
  0
LINE
  5
CA
330
1F
100
AcDbEntity
  8
0
  6
Continuous
 62
     7
100
AcDbLine
 10
896.0905897503924
 20
-586.7235129280712
 30
0.0
 11
910.0915897503917
 21
-586.7245129280727
 31
0.0
  0
LINE
  5
CB
330
1F
100
AcDbEntity
  8
0
  6
Continuous
 62
     7
100
AcDbLine
 10
913.0915897503926
 20
-584.2245129280731
 30
0.0
 11
927.0925897503928
 21
-584.2235129280747
 31
0.0
  0
LINE
  5
CC
330
1F
100
AcDbEntity
  8
0
  6
Continuous
 62
     7
100
AcDbLine
 10
932.3915897507065
 20
-583.4235129283894
 30
0.0
 11
933.0915897503926
 21
-582.7235129280754
 31
0.0
  0
LINE
  5
CD
330
1F
100
AcDbEntity
  8
0
  6
Continuous
 62
     7
100
AcDbLine
 10
932.3915897503928
 20
-578.4235129280752
 30
0.0
 11
933.0915897500788
 21
-577.7235129277612
 31
0.0
  0
LINE
  5
CE
330
1F
100
AcDbEntity
  8
0
  6
Continuous
 62
     7
100
AcDbLine
 10
932.091589750398
 20
-529.973512928075
 30
0.0
 11
933.091589750398
 21
-528.973512928075
 31
0.0
  0
LINE
  5
CF
330
1F
100
AcDbEntity
  8
0
  6
Continuous
 62
     7
100
AcDbLine
 10
933.091589750398
 20
-528.973512928075
 30
0.0
 11
933.091589750398
 21
-525.473512928075
 31
0.0
  0
LINE
  5
D0
330
1F
100
AcDbEntity
  8
0
  6
Continuous
 62
     7
100
AcDbLine
 10
933.0915897503935
 20
-561.9735129280751
 30
0.0
 11
932.0915897503935
 21
-560.9735129280751
 31
0.0
  0
LINE
  5
D1
330
1F
100
AcDbEntity
  8
0
  6
Continuous
 62
     7
100
AcDbLine
 10
932.0915897503935
 20
-560.9735129280751
 30
0.0
 11
932.091589750398
 21
-529.973512928075
 31
0.0
  0
LINE
  5
D2
330
1F
100
AcDbEntity
  8
0
  6
Continuous
 62
     7
100
AcDbLine
 10
933.0915897503926
 20
-576.0173940098593
 30
0.0
 11
933.0915897503935
 21
-561.9735129280751
 31
0.0
  0
LINE
  5
D3
330
1F
100
AcDbEntity
  8
0
  6
Continuous
 62
     7
100
AcDbLine
 10
930.591589750399
 20
-522.9735129280748
 30
0.0
 11
927.091589750399
 21
-522.9735129280743
 31
0.0
  0
LINE
  5
D4
330
1F
100
AcDbEntity
  8
0
  6
Continuous
 62
     7
100
AcDbLine
 10
933.0915897500788
 20
-577.7235129277612
 30
0.0
 11
913.0915897503926
 21
-577.7235129280731
 31
0.0
  0
LINE
  5
D5
330
1F
100
AcDbEntity
  8
0
  6
Continuous
 62
     7
100
AcDbLine
 10
933.0915897503926
 20
-576.0173940098593
 30
0.0
 11
933.0915897500788
 21
-577.7235129277612
 31
0.0
  0
LINE
  5
D6
330
1F
100
AcDbEntity
  8
0
  6
Continuous
 62
     7
100
AcDbLine
 10
896.091589750399
 20
-522.9735129280709
 30
0.0
 11
927.091589750399
 21
-522.9735129280743
 31
0.0
  0
LINE
  5
D7
330
1F
100
AcDbEntity
  8
0
  6
Continuous
 62
     7
100
AcDbLine
 10
890.0915897507073
 20
-577.7235129277564
 30
0.0
 11
910.0915897503926
 21
-577.7235129280728
 31
0.0
  0
LINE
  5
D8
330
1F
100
AcDbEntity
  8
0
  6
Continuous
 62
     7
100
AcDbLine
 10
910.0915897503926
 20
-578.4235129280727
 30
0.0
 11
910.0915897503926
 21
-578.5235129280727
 31
0.0
  0
LINE
  5
D9
330
1F
100
AcDbEntity
  8
0
  6
Continuous
 62
     7
100
AcDbLine
 10
910.0915897503926
 20
-578.5235129280727
 30
0.0
 11
910.0915897503917
 21
-579.2235129280726
 31
0.0
  0
LINE
  5
DA
330
1F
100
AcDbEntity
  8
0
  6
Continuous
 62
     7
100
AcDbLine
 10
910.0915897503926
 20
-577.7235129280728
 30
0.0
 11
910.0915897503926
 21
-578.4235129280727
 31
0.0
  0
LINE
  5
DB
330
1F
100
AcDbEntity
  8
0
  6
Continuous
 62
     7
100
AcDbLine
 10
910.0915897503917
 20
-579.2235129280726
 30
0.0
 11
890.0915897503926
 21
-579.2235129280704
 31
0.0
  0
LINE
  5
DC
330
1F
100
AcDbEntity
  8
0
  6
Continuous
 62
     7
100
AcDbLine
 10
890.0915897503926
 20
-580.2235129280704
 30
0.0
 11
910.0915897503926
 21
-580.2235129280728
 31
0.0
  0
LINE
  5
DD
330
1F
100
AcDbEntity
  8
0
  6
Continuous
 62
     7
100
AcDbLine
 10
910.0915897503926
 20
-580.2235129280728
 30
0.0
 11
910.0915897503926
 21
-580.9235129280727
 31
0.0
  0
LINE
  5
DE
330
1F
100
AcDbEntity
  8
0
  6
Continuous
 62
     7
100
AcDbLine
 10
910.0915897503926
 20
-581.0235129280727
 30
0.0
 11
910.0915897503926
 21
-581.7235129280728
 31
0.0
  0
LINE
  5
DF
330
1F
100
AcDbEntity
  8
0
  6
Continuous
 62
     7
100
AcDbLine
 10
910.0915897503926
 20
-583.4235129280727
 30
0.0
 11
910.0915897503926
 21
-583.5235129280727
 31
0.0
  0
LINE
  5
E0
330
1F
100
AcDbEntity
  8
0
  6
Continuous
 62
     7
100
AcDbLine
 10
910.0915897503926
 20
-582.7235129280728
 30
0.0
 11
910.0915897503926
 21
-583.4235129280727
 31
0.0
  0
LINE
  5
E1
330
1F
100
AcDbEntity
  8
0
  6
Continuous
 62
     7
100
AcDbLine
 10
910.0915897503926
 20
-583.5235129280727
 30
0.0
 11
910.0915897503926
 21
-584.2245129280727
 31
0.0
  0
LINE
  5
E2
330
1F
100
AcDbEntity
  8
0
  6
Continuous
 62
     7
100
AcDbLine
 10
896.0905897503924
 20
-584.2235129280712
 30
0.0
 11
890.0905898340959
 21
-584.2245128449965
 31
0.0
  0
LINE
  5
E3
330
1F
100
AcDbEntity
  8
0
  6
Continuous
 62
     7
100
AcDbLine
 10
890.0915897507073
 20
-582.7235129277564
 30
0.0
 11
910.0915897503926
 21
-582.7235129280728
 31
0.0
  0
LINE
  5
E4
330
1F
100
AcDbEntity
  8
0
  6
Continuous
 62
     7
100
AcDbLine
 10
896.0905897503924
 20
-584.2235129280712
 30
0.0
 11
910.0915897503926
 21
-584.2245129280727
 31
0.0
  0
LINE
  5
E5
330
1F
100
AcDbEntity
  8
0
  6
Continuous
 62
     7
100
AcDbLine
 10
910.0915897503917
 20
-585.2225129280727
 30
0.0
 11
896.0905897503924
 21
-585.2235129280712
 31
0.0
  0
LINE
  5
E6
330
1F
100
AcDbEntity
  8
0
  6
Continuous
 62
     7
100
AcDbLine
 10
927.0925897503928
 20
-585.2235129280747
 30
0.0
 11
913.0915897503917
 21
-585.2225129280731
 31
0.0
  0
LINE
  5
E7
330
1F
100
AcDbEntity
  8
0
  6
Continuous
 62
     7
100
AcDbLine
 10
932.3915897503919
 20
-585.9235129280753
 30
0.0
 11
933.0915897503926
 21
-585.2225130114642
 31
0.0
  0
LINE
  5
E8
330
1F
100
AcDbEntity
  8
0
  6
Continuous
 62
     7
100
AcDbLine
 10
933.0925897503919
 20
-590.0735129280755
 30
0.0
 11
939.0925897503919
 21
-590.073512928076
 31
0.0
  0
LINE
  5
E9
330
1F
100
AcDbEntity
  8
0
  6
Continuous
 62
     7
100
AcDbLine
 10
933.092589750391
 20
-594.8735129280755
 30
0.0
 11
939.092589750391
 21
-594.873512928076
 31
0.0
  0
LINE
  5
EA
330
1F
100
AcDbEntity
  8
0
  6
Continuous
 62
     7
100
AcDbLine
 10
890.0915897503908
 20
-598.9835129280704
 30
0.0
 11
933.0915897503908
 21
-598.9835129280754
 31
0.0
  0
LINE
  5
EB
330
1F
100
AcDbEntity
  8
0
  6
Continuous
 62
     7
100
AcDbLine
 10
933.0915897503908
 20
-598.9835129280754
 30
0.0
 11
933.0915897503908
 21
-598.9735129280754
 31
0.0
  0
LINE
  5
EC
330
1F
100
AcDbEntity
  8
0
  6
Continuous
 62
     7
100
AcDbLine
 10
896.0905897503924
 20
-585.2235129280712
 30
0.0
 11
890.0915897503917
 21
-585.2245130107774
 31
0.0
  0
LINE
  5
ED
330
1F
100
AcDbEntity
  8
0
  6
Continuous
 62
     7
100
AcDbLine
 10
890.7915897503933
 20
-578.4235129280705
 30
0.0
 11
890.0915897507073
 21
-577.7235129277564
 31
0.0
  0
LINE
  5
EE
330
1F
100
AcDbEntity
  8
0
  6
Continuous
 62
     7
100
AcDbLine
 10
890.7915897503933
 20
-580.9235129280706
 30
0.0
 11
890.0915897503926
 21
-580.2235129280704
 31
0.0
  0
LINE
  5
EF
330
1F
100
AcDbEntity
  8
0
  6
Continuous
 62
     7
100
AcDbLine
 10
890.0915897503926
 20
-576.0173940098545
 30
0.0
 11
890.0915897507073
 21
-577.7235129277564
 31
0.0
  0
LINE
  5
F0
330
1F
100
AcDbEntity
  8
0
  6
Continuous
 62
     7
100
AcDbLine
 10
890.7915897500786
 20
-578.5235129277564
 30
0.0
 11
890.0915897503926
 21
-579.2235129280704
 31
0.0
  0
LINE
  5
F1
330
1F
100
AcDbEntity
  8
0
  6
Continuous
 62
     7
100
AcDbLine
 10
890.0915897503926
 20
-579.2235129280704
 30
0.0
 11
890.0915897503926
 21
-580.2235129280704
 31
0.0
  0
LINE
  5
F2
330
1F
100
AcDbEntity
  8
0
  6
Continuous
 62
     7
100
AcDbLine
 10
890.0915897503935
 20
-561.9735129280702
 30
0.0
 11
890.0915897503926
 21
-576.0173940098545
 31
0.0
  0
LINE
  5
F3
330
1F
100
AcDbEntity
  8
0
  6
Continuous
 62
     7
100
AcDbLine
 10
890.0915897503926
 20
-581.7235129280704
 30
0.0
 11
890.0915897507073
 21
-582.7235129277564
 31
0.0
  0
LINE
  5
F4
330
1F
100
AcDbEntity
  8
0
  6
Continuous
 62
     7
100
AcDbLine
 10
890.0915897503917
 20
-585.2245130107774
 30
0.0
 11
890.0905898340959
 21
-584.2245128449965
 31
0.0
  0
LINE
  5
F5
330
1F
100
AcDbEntity
  8
0
  6
Continuous
 62
     7
100
AcDbLine
 10
890.0915897503917
 20
-586.7235129280704
 30
0.0
 11
890.0905897503924
 21
-588.5735129280705
 31
0.0
  0
LINE
  5
F6
330
1F
100
AcDbEntity
  8
0
  6
Continuous
 62
     7
100
AcDbLine
 10
890.0905897503906
 20
-596.3735129280705
 30
0.0
 11
890.0915897503908
 21
-598.9735129280704
 31
0.0
  0
LINE
  5
F7
330
1F
100
AcDbEntity
  8
0
  6
Continuous
 62
     7
100
AcDbLine
 10
890.0905897503924
 20
-588.5735129280705
 30
0.0
 11
890.0905897503924
 21
-590.0735129280698
 31
0.0
  0
LINE
  5
F8
330
1F
100
AcDbEntity
  8
0
  6
Continuous
 62
     7
100
AcDbLine
 10
890.7915897503915
 20
-585.9235129280706
 30
0.0
 11
890.0915897503917
 21
-585.2245130107774
 31
0.0
  0
LINE
  5
F9
330
1F
100
AcDbEntity
  8
0
  6
Continuous
 62
     7
100
AcDbLine
 10
890.7915897503933
 20
-583.4235129280705
 30
0.0
 11
890.0915897507073
 21
-582.7235129277564
 31
0.0
  0
LINE
  5
FA
330
1F
100
AcDbEntity
  8
0
  6
Continuous
 62
     7
100
AcDbLine
 10
890.7915897500786
 20
-581.0235129277564
 30
0.0
 11
890.0915897503926
 21
-581.7235129280704
 31
0.0
  0
LINE
  5
FB
330
1F
100
AcDbEntity
  8
0
  6
Continuous
 62
     7
100
AcDbLine
 10
891.0915897503944
 20
-560.9735129280704
 30
0.0
 11
890.0915897503935
 21
-561.9735129280702
 31
0.0
  0
LINE
  5
FC
330
1F
100
AcDbEntity
  8
0
  6
Continuous
 62
     7
100
AcDbLine
 10
892.591589750399
 20
-522.9735129280705
 30
0.0
 11
896.091589750399
 21
-522.9735129280709
 31
0.0
  0
LINE
  5
FD
330
1F
100
AcDbEntity
  8
0
  6
Continuous
 62
     7
100
AcDbLine
 10
890.091589750398
 20
-525.4735129280701
 30
0.0
 11
890.091589750398
 21
-528.9735129280701
 31
0.0
  0
LINE
  5
FE
330
1F
100
AcDbEntity
  8
0
  6
Continuous
 62
     7
100
AcDbLine
 10
890.091589750398
 20
-528.9735129280701
 30
0.0
 11
891.091589750398
 21
-529.9735129280704
 31
0.0
  0
LINE
  5
FF
330
1F
100
AcDbEntity
  8
0
  6
Continuous
 62
     7
100
AcDbLine
 10
890.7915897503933
 20
-578.4235129280705
 30
0.0
 11
890.7915897500786
 21
-578.5235129277564
 31
0.0
  0
LINE
  5
100
330
1F
100
AcDbEntity
  8
0
  6
Continuous
 62
     7
100
AcDbLine
 10
890.7915897503933
 20
-583.4235129280705
 30
0.0
 11
890.7915897500786
 21
-583.5235129277564
 31
0.0
  0
LINE
  5
101
330
1F
100
AcDbEntity
  8
0
  6
Continuous
 62
     7
100
AcDbLine
 10
890.7915897503915
 20
-585.9235129280706
 30
0.0
 11
890.7915897503915
 21
-586.0235129280704
 31
0.0
  0
LINE
  5
102
330
1F
100
AcDbEntity
  8
0
  6
Continuous
 62
     7
100
AcDbLine
 10
891.091589750398
 20
-529.9735129280704
 30
0.0
 11
891.0915897503944
 21
-560.9735129280704
 31
0.0
  0
LINE
  5
103
330
1F
100
AcDbEntity
  8
0
  6
Continuous
 62
     7
100
AcDbLine
 10
890.0905897503906
 20
-594.8735129280702
 30
0.0
 11
884.0905897503906
 21
-594.8735129280698
 31
0.0
  0
LINE
  5
104
330
1F
100
AcDbEntity
  8
0
  6
Continuous
 62
     7
100
AcDbLine
 10
884.0905897503924
 20
-592.4735129280698
 30
0.0
 11
884.0905897503924
 21
-590.0735129280698
 31
0.0
  0
LINE
  5
105
330
1F
100
AcDbEntity
  8
0
  6
Continuous
 62
     7
100
AcDbLine
 10
884.0905897503906
 20
-594.8735129280698
 30
0.0
 11
884.0905897503924
 21
-592.4735129280698
 31
0.0
  0
LINE
  5
106
330
1F
100
AcDbEntity
  8
0
  6
Continuous
 62
     7
100
AcDbLine
 10
890.0915897503908
 20
-598.9735129280704
 30
0.0
 11
890.0915897503908
 21
-598.9835129280704
 31
0.0
  0
LINE
  5
107
330
1F
100
AcDbEntity
  8
0
  6
Continuous
 62
     7
100
AcDbLine
 10
890.7915897503915
 20
-586.0235129280704
 30
0.0
 11
890.0915897503917
 21
-586.7235129280704
 31
0.0
  0
LINE
  5
108
330
1F
100
AcDbEntity
  8
0
  6
Continuous
 62
     7
100
AcDbLine
 10
890.7915897500786
 20
-583.5235129277564
 30
0.0
 11
890.0905898340959
 21
-584.2245128449965
 31
0.0
  0
LINE
  5
109
330
1F
100
AcDbEntity
  8
0
  6
Continuous
 62
     7
100
AcDbLine
 10
933.0915897503926
 20
-584.2235129280754
 30
0.0
 11
933.0915897503926
 21
-585.2225130114642
 31
0.0
  0
LINE
  5
10A
330
1F
100
AcDbEntity
  8
0
  6
Continuous
 62
     7
100
AcDbLine
 10
933.0925897503919
 20
-588.5735129280753
 30
0.0
 11
933.0915897503917
 21
-586.7235129280754
 31
0.0
  0
LINE
  5
10B
330
1F
100
AcDbEntity
  8
0
  6
Continuous
 62
     7
100
AcDbLine
 10
933.0915897503908
 20
-598.9735129280754
 30
0.0
 11
933.092589750391
 21
-596.3735129280752
 31
0.0
  0
LINE
  5
10C
330
1F
100
AcDbEntity
  8
0
  6
Continuous
 62
     7
100
AcDbLine
 10
933.092589750391
 20
-596.3735129280752
 30
0.0
 11
933.0925897503919
 21
-588.5735129280753
 31
0.0
  0
LINE
  5
10D
330
1F
100
AcDbEntity
  8
0
  6
Continuous
 62
     7
100
AcDbLine
 10
933.0915897503917
 20
-586.7235129280754
 30
0.0
 11
927.091589667071
 21
-586.7235129287029
 31
0.0
  0
LINE
  5
10E
330
1F
100
AcDbEntity
  8
0
  6
Continuous
 62
     7
100
AcDbLine
 10
913.0915897503917
 20
-586.0235129280732
 30
0.0
 11
913.0915897503917
 21
-585.923512928073
 31
0.0
  0
LINE
  5
10F
330
1F
100
AcDbEntity
  8
0
  6
Continuous
 62
     7
100
AcDbLine
 10
913.0915897503917
 20
-586.7245129280731
 30
0.0
 11
913.0915897503917
 21
-586.0235129280732
 31
0.0
  0
LINE
  5
110
330
1F
100
AcDbEntity
  8
0
  6
Continuous
 62
     7
100
AcDbLine
 10
932.3915897507065
 20
-586.0235129277612
 30
0.0
 11
932.3915897503919
 21
-585.9235129280753
 31
0.0
  0
LINE
  5
111
330
1F
100
AcDbEntity
  8
0
  6
Continuous
 62
     7
100
AcDbLine
 10
933.0915897503926
 20
-585.2225130114642
 30
0.0
 11
927.0925897503928
 21
-585.2235129280747
 31
0.0
  0
LINE
  5
112
330
1F
100
AcDbEntity
  8
0
  6
Continuous
 62
     7
100
AcDbLine
 10
913.0915897503917
 20
-585.923512928073
 30
0.0
 11
913.0915897503917
 21
-585.2225129280731
 31
0.0
  0
LINE
  5
113
330
1F
100
AcDbEntity
  8
0
  6
Continuous
 62
     7
100
AcDbLine
 10
913.0915897503926
 20
-584.2245129280731
 30
0.0
 11
913.0915897503926
 21
-583.5235129280732
 31
0.0
  0
LINE
  5
114
330
1F
100
AcDbEntity
  8
0
  6
Continuous
 62
     7
100
AcDbLine
 10
932.3915897503928
 20
-578.5235129280752
 30
0.0
 11
932.3915897503928
 21
-578.4235129280752
 31
0.0
  0
LINE
  5
115
330
1F
100
AcDbEntity
  8
0
  6
Continuous
 62
     7
100
AcDbLine
 10
933.0915897503926
 20
-579.2235129280754
 30
0.0
 11
913.0915897503917
 21
-579.223512928073
 31
0.0
  0
LINE
  5
116
330
1F
100
AcDbEntity
  8
0
  6
Continuous
 62
     7
100
AcDbLine
 10
933.0915897503926
 20
-579.2235129280754
 30
0.0
 11
933.0915897503926
 21
-580.2235129280754
 31
0.0
  0
LINE
  5
117
330
1F
100
AcDbEntity
  8
0
  6
Continuous
 62
     7
100
AcDbLine
 10
932.3915897507065
 20
-581.0235129277612
 30
0.0
 11
932.3915897503928
 21
-580.9235129280753
 31
0.0
  0
LINE
  5
118
330
1F
100
AcDbEntity
  8
0
  6
Continuous
 62
     7
100
AcDbLine
 10
932.3915897503928
 20
-580.9235129280753
 30
0.0
 11
933.0915897503926
 21
-580.2235129280754
 31
0.0
  0
LINE
  5
119
330
1F
100
AcDbEntity
  8
0
  6
Continuous
 62
     7
100
AcDbLine
 10
932.3915897503928
 20
-578.5235129280752
 30
0.0
 11
933.0915897503926
 21
-579.2235129280754
 31
0.0
  0
LINE
  5
11A
330
1F
100
AcDbEntity
  8
0
  6
Continuous
 62
     7
100
AcDbLine
 10
913.0915897503926
 20
-578.423512928073
 30
0.0
 11
913.0915897503926
 21
-577.7235129280731
 31
0.0
  0
LINE
  5
11B
330
1F
100
AcDbEntity
  8
0
  6
Continuous
 62
     7
100
AcDbLine
 10
913.0915897503926
 20
-578.523512928073
 30
0.0
 11
913.0915897503926
 21
-578.423512928073
 31
0.0
  0
LINE
  5
11C
330
1F
100
AcDbEntity
  8
0
  6
Continuous
 62
     7
100
AcDbLine
 10
913.0915897503917
 20
-579.223512928073
 30
0.0
 11
913.0915897503926
 21
-578.523512928073
 31
0.0
  0
LINE
  5
11D
330
1F
100
AcDbEntity
  8
0
  6
Continuous
 62
     7
100
AcDbLine
 10
913.0915897503926
 20
-581.7235129280731
 30
0.0
 11
933.0915897503926
 21
-581.7235129280754
 31
0.0
  0
LINE
  5
11E
330
1F
100
AcDbEntity
  8
0
  6
Continuous
 62
     7
100
AcDbLine
 10
932.3915897507065
 20
-583.5235129277612
 30
0.0
 11
932.3915897507065
 21
-583.4235129283894
 31
0.0
  0
LINE
  5
11F
330
1F
100
AcDbEntity
  8
0
  6
Continuous
 62
     7
100
AcDbLine
 10
927.0925897503928
 20
-584.2235129280747
 30
0.0
 11
933.0915897503926
 21
-584.2235129280754
 31
0.0
  0
LINE
  5
120
330
1F
100
AcDbEntity
  8
0
  6
Continuous
 62
     7
100
AcDbLine
 10
933.0915897503926
 20
-582.7235129280754
 30
0.0
 11
933.0915897503926
 21
-581.7235129280754
 31
0.0
  0
LINE
  5
121
330
1F
100
AcDbEntity
  8
0
  6
Continuous
 62
     7
100
AcDbLine
 10
932.3915897507065
 20
-581.0235129277612
 30
0.0
 11
933.0915897503926
 21
-581.7235129280754
 31
0.0
  0
LINE
  5
122
330
1F
100
AcDbEntity
  8
0
  6
Continuous
 62
     7
100
AcDbLine
 10
913.0915897503926
 20
-580.2235129280731
 30
0.0
 11
933.0915897503926
 21
-580.2235129280754
 31
0.0
  0
LINE
  5
123
330
1F
100
AcDbEntity
  8
0
  6
Continuous
 62
     7
100
AcDbLine
 10
913.0915897503926
 20
-582.7235129280731
 30
0.0
 11
933.0915897503926
 21
-582.7235129280754
 31
0.0
  0
LINE
  5
124
330
1F
100
AcDbEntity
  8
0
  6
Continuous
 62
     7
100
AcDbLine
 10
913.0915897503926
 20
-583.5235129280732
 30
0.0
 11
913.0915897503926
 21
-583.423512928073
 31
0.0
  0
LINE
  5
125
330
1F
100
AcDbEntity
  8
0
  6
Continuous
 62
     7
100
AcDbLine
 10
913.0915897503926
 20
-580.923512928073
 30
0.0
 11
913.0915897503926
 21
-580.2235129280731
 31
0.0
  0
LINE
  5
126
330
1F
100
AcDbEntity
  8
0
  6
Continuous
 62
     7
100
AcDbLine
 10
913.0915897503926
 20
-581.0235129280732
 30
0.0
 11
913.0915897503926
 21
-580.923512928073
 31
0.0
  0
LINE
  5
127
330
1F
100
AcDbEntity
  8
0
  6
Continuous
 62
     7
100
AcDbLine
 10
913.0915897503926
 20
-581.7235129280731
 30
0.0
 11
913.0915897503926
 21
-581.0235129280732
 31
0.0
  0
LINE
  5
128
330
1F
100
AcDbEntity
  8
0
  6
Continuous
 62
     7
100
AcDbLine
 10
913.0915897503926
 20
-583.423512928073
 30
0.0
 11
913.0915897503926
 21
-582.7235129280731
 31
0.0
  0
LINE
  5
129
330
1F
100
AcDbEntity
  8
0
  6
Continuous
 62
     7
100
AcDbLine
 10
932.3915897507065
 20
-583.5235129277612
 30
0.0
 11
933.0915897503926
 21
-584.2235129280754
 31
0.0
  0
LINE
  5
12A
330
1F
100
AcDbEntity
  8
0
  6
Continuous
 62
     7
100
AcDbLine
 10
932.3915897507065
 20
-586.0235129277612
 30
0.0
 11
933.0915897503917
 21
-586.7235129280754
 31
0.0
  0
LINE
  5
12B
330
1F
100
AcDbEntity
  8
0
  6
Continuous
 62
     7
100
AcDbLine
 10
890.7915897503933
 20
-580.9235129280706
 30
0.0
 11
890.7915897500786
 21
-581.0235129277564
 31
0.0
  0
LINE
  5
12C
330
1F
100
AcDbEntity
  8
0
  6
Continuous
 62
     7
100
AcDbLine
 10
910.0915897503926
 20
-580.9235129280727
 30
0.0
 11
910.0915897503926
 21
-581.0235129280727
 31
0.0
  0
LINE
  5
12D
330
1F
100
AcDbEntity
  8
0
  6
Continuous
 62
     7
100
AcDbLine
 10
890.0915897503926
 20
-581.7235129280704
 30
0.0
 11
910.0915897503926
 21
-581.7235129280728
 31
0.0
  0
LINE
  5
12E
330
1F
100
AcDbEntity
  8
0
  6
Continuous
 62
     7
100
AcDbLine
 10
751.4398590214576
 20
-529.9735129280796
 30
0.0
 11
745.7731923547906
 21
-560.9735129280797
 31
0.0
  0
LINE
  5
12F
330
1F
100
AcDbEntity
  8
0
  6
Continuous
 62
     7
100
AcDbLine
 10
828.9915902360997
 20
-584.2245128446862
 30
0.0
 11
747.4905905695166
 21
-584.2235129280798
 31
0.0
  0
LINE
  5
130
330
1F
100
AcDbEntity
  8
0
  6
Continuous
 62
     7
100
AcDbLine
 10
834.9920905692013
 20
-584.2240129283897
 30
0.0
 11
828.9915902360997
 21
-584.2245128446862
 31
0.0
  0
LINE
  5
131
330
1F
100
AcDbEntity
  8
0
  6
Continuous
 62
     7
100
AcDbLine
 10
747.491590902933
 20
-585.2225130114688
 30
0.0
 11
834.992590569517
 21
-585.2225129280777
 31
0.0
  0
LINE
  5
132
330
1F
100
AcDbEntity
  8
0
  6
Continuous
 62
     7
100
AcDbLine
 10
747.491590902933
 20
-585.2225130114688
 30
0.0
 11
741.4915905695168
 21
-585.2235129280792
 31
0.0
  0
LINE
  5
133
330
1F
100
AcDbEntity
  8
0
  6
Continuous
 62
     7
100
AcDbLine
 10
834.8937919557663
 20
-574.9384969822692
 30
0.0
 11
832.7714745427909
 21
-557.3281723112829
 31
0.0
  0
LINE
  5
134
330
1F
100
AcDbEntity
  8
0
  6
Continuous
 62
     7
100
AcDbLine
 10
830.7099887842421
 20
-560.9735129280797
 30
0.0
 11
825.043322117576
 21
-529.9735129280796
 31
0.0
  0
LINE
  5
135
330
1F
100
AcDbEntity
  8
0
  6
Continuous
 62
     7
100
AcDbLine
 10
834.291590569517
 20
-580.9235129280777
 30
0.0
 11
834.9915905695168
 21
-580.2235129280776
 31
0.0
  0
LINE
  5
136
330
1F
100
AcDbEntity
  8
0
  6
Continuous
 62
     7
100
AcDbLine
 10
834.2915905698308
 20
-583.4235129283933
 30
0.0
 11
834.9915905695168
 21
-582.7235129280792
 31
0.0
  0
LINE
  5
137
330
1F
100
AcDbEntity
  8
0
  6
Continuous
 62
     7
100
AcDbLine
 10
834.2915905698308
 20
-581.0235129277615
 30
0.0
 11
834.9915905695168
 21
-581.7235129280791
 31
0.0
  0
LINE
  5
138
330
1F
100
AcDbEntity
  8
0
  6
Continuous
 62
     7
100
AcDbLine
 10
834.2915905698308
 20
-583.4235129283933
 30
0.0
 11
834.2915905698308
 21
-583.5235129277615
 31
0.0
  0
LINE
  5
139
330
1F
100
AcDbEntity
  8
0
  6
Continuous
 62
     7
100
AcDbLine
 10
834.9915905695168
 20
-582.7235129280792
 30
0.0
 11
834.9915905695168
 21
-581.7235129280791
 31
0.0
  0
LINE
  5
13A
330
1F
100
AcDbEntity
  8
0
  6
Continuous
 62
     7
100
AcDbLine
 10
834.2915905698308
 20
-581.0235129277615
 30
0.0
 11
834.291590569517
 21
-580.9235129280777
 31
0.0
  0
LINE
  5
13B
330
1F
100
AcDbEntity
  8
0
  6
Continuous
 62
     7
100
AcDbLine
 10
834.991590569203
 20
-579.2235129283933
 30
0.0
 11
834.291590569517
 21
-578.5235129280776
 31
0.0
  0
LINE
  5
13C
330
1F
100
AcDbEntity
  8
0
  6
Continuous
 62
     7
100
AcDbLine
 10
834.291590569517
 20
-578.4235129280777
 30
0.0
 11
834.9915905695168
 21
-577.7235129280776
 31
0.0
  0
LINE
  5
13D
330
1F
100
AcDbEntity
  8
0
  6
Continuous
 62
     7
100
AcDbLine
 10
834.291590569517
 20
-578.5235129280776
 30
0.0
 11
834.291590569517
 21
-578.4235129280777
 31
0.0
  0
LINE
  5
13E
330
1F
100
AcDbEntity
  8
0
  6
Continuous
 62
     7
100
AcDbLine
 10
824.4071551824634
 20
-522.973512928079
 30
0.0
 11
752.0760259565702
 21
-522.9735129280755
 31
0.0
  0
LINE
  5
13F
330
1F
100
AcDbEntity
  8
0
  6
Continuous
 62
     7
100
AcDbLine
 10
745.7731923547906
 20
-560.9735129280797
 30
0.0
 11
830.7099887842421
 21
-560.9735129280797
 31
0.0
  0
LINE
  5
140
330
1F
100
AcDbEntity
  8
0
  6
Continuous
 62
     7
100
AcDbLine
 10
747.4905905695166
 20
-586.723512928075
 30
0.0
 11
741.4915905695168
 21
-586.7235129280756
 31
0.0
  0
LINE
  5
141
330
1F
100
AcDbEntity
  8
0
  6
Continuous
 62
     7
100
AcDbLine
 10
830.9915905695168
 20
-586.7225128453673
 30
0.0
 11
828.992590569517
 21
-586.723512928075
 31
0.0
  0
LINE
  5
142
330
1F
100
AcDbEntity
  8
0
  6
Continuous
 62
     7
100
AcDbLine
 10
747.4905905695166
 20
-586.723512928075
 30
0.0
 11
823.9915905695168
 21
-586.7245129280799
 31
0.0
  0
LINE
  5
143
330
1F
100
AcDbEntity
  8
0
  6
Continuous
 62
     7
100
AcDbLine
 10
823.9915905695168
 20
-586.7245129280799
 30
0.0
 11
828.992590569517
 21
-586.723512928075
 31
0.0
  0
LINE
  5
144
330
1F
100
AcDbEntity
  8
0
  6
Continuous
 62
     7
100
AcDbLine
 10
821.4889456405888
 20
-528.9735129280797
 30
0.0
 11
754.9942354984448
 21
-528.9735129280797
 31
0.0
  0
LINE
  5
145
330
1F
100
AcDbEntity
  8
0
  6
Continuous
 62
     7
100
AcDbLine
 10
827.5212037051049
 20
-561.9735129280797
 30
0.0
 11
748.9619774339287
 21
-561.9735129280797
 31
0.0
  0
LINE
  5
146
330
1F
100
AcDbEntity
  8
0
  6
Continuous
 62
     7
100
AcDbLine
 10
751.4398590214576
 20
-529.9735129280796
 30
0.0
 11
825.043322117576
 21
-529.9735129280796
 31
0.0
  0
LINE
  5
147
330
1F
100
AcDbEntity
  8
0
  6
Continuous
 62
     7
100
AcDbLine
 10
745.7900207290811
 20
-545.9585714669316
 30
0.0
 11
741.5893891832673
 21
-574.9384969822692
 31
0.0
  0
LINE
  5
148
330
1F
100
AcDbEntity
  8
0
  6
Continuous
 62
     7
100
AcDbLine
 10
742.1915905695166
 20
-578.4235129280793
 30
0.0
 11
741.4915905695168
 21
-577.7235129280773
 31
0.0
  0
LINE
  5
149
330
1F
100
AcDbEntity
  8
0
  6
Continuous
 62
     7
100
AcDbLine
 10
742.1915905695166
 20
-578.5235129280791
 30
0.0
 11
741.4915905695168
 21
-579.2235129280757
 31
0.0
  0
LINE
  5
14A
330
1F
100
AcDbEntity
  8
0
  6
Continuous
 62
     7
100
AcDbLine
 10
742.1915905695166
 20
-585.9235129280758
 30
0.0
 11
741.4915905695168
 21
-585.2235129280792
 31
0.0
  0
LINE
  5
14B
330
1F
100
AcDbEntity
  8
0
  6
Continuous
 62
     7
100
AcDbLine
 10
742.1915905692028
 20
-583.4235129283933
 30
0.0
 11
741.4915905698306
 21
-582.723512927765
 31
0.0
  0
LINE
  5
14C
330
1F
100
AcDbEntity
  8
0
  6
Continuous
 62
     7
100
AcDbLine
 10
742.1915905692028
 20
-583.5235129277615
 30
0.0
 11
741.4915905695168
 21
-584.2235129280792
 31
0.0
  0
LINE
  5
14D
330
1F
100
AcDbEntity
  8
0
  6
Continuous
 62
     7
100
AcDbLine
 10
741.4915905698306
 20
-582.723512927765
 30
0.0
 11
834.9915905695168
 21
-582.7235129280792
 31
0.0
  0
LINE
  5
14E
330
1F
100
AcDbEntity
  8
0
  6
Continuous
 62
     7
100
AcDbLine
 10
741.4915905695168
 20
-584.2235129280792
 30
0.0
 11
747.4905905695166
 21
-584.2235129280798
 31
0.0
  0
LINE
  5
14F
330
1F
100
AcDbEntity
  8
0
  6
Continuous
 62
     7
100
AcDbLine
 10
742.1915905692028
 20
-583.4235129283933
 30
0.0
 11
742.1915905692028
 21
-583.5235129277615
 31
0.0
  0
LINE
  5
150
330
1F
100
AcDbEntity
  8
0
  6
Continuous
 62
     7
100
AcDbLine
 10
742.1915905695166
 20
-578.5235129280791
 30
0.0
 11
742.1915905695166
 21
-578.4235129280793
 31
0.0
  0
LINE
  5
151
330
1F
100
AcDbEntity
  8
0
  6
Continuous
 62
     7
100
AcDbLine
 10
742.1915905695166
 20
-586.0235129280757
 30
0.0
 11
741.4915905695168
 21
-586.7235129280756
 31
0.0
  0
LINE
  5
152
330
1F
100
AcDbEntity
  8
0
  6
Continuous
 62
     7
100
AcDbLine
 10
742.1915905695166
 20
-580.9235129280758
 30
0.0
 11
741.4915905695168
 21
-580.2235129280772
 31
0.0
  0
LINE
  5
153
330
1F
100
AcDbEntity
  8
0
  6
Continuous
 62
     7
100
AcDbLine
 10
742.1915905692028
 20
-581.0235129277615
 30
0.0
 11
741.4915905695168
 21
-581.7235129280757
 31
0.0
  0
LINE
  5
154
330
1F
100
AcDbEntity
  8
0
  6
Continuous
 62
     7
100
AcDbLine
 10
741.4915905698306
 20
-582.723512927765
 30
0.0
 11
741.4915905695168
 21
-584.2235129280792
 31
0.0
  0
LINE
  5
155
330
1F
100
AcDbEntity
  8
0
  6
Continuous
 62
     7
100
AcDbLine
 10
741.4915905695168
 20
-598.9835129280757
 30
0.0
 11
741.4915905695168
 21
-586.7235129280756
 31
0.0
  0
LINE
  5
156
330
1F
100
AcDbEntity
  8
0
  6
Continuous
 62
     7
100
AcDbLine
 10
741.4915905695168
 20
-584.2235129280792
 30
0.0
 11
741.4915905695168
 21
-585.2235129280792
 31
0.0
  0
LINE
  5
157
330
1F
100
AcDbEntity
  8
0
  6
Continuous
 62
     7
100
AcDbLine
 10
741.4915905695168
 20
-585.2235129280792
 30
0.0
 11
741.4915905695168
 21
-586.7235129280756
 31
0.0
  0
LINE
  5
158
330
1F
100
AcDbEntity
  8
0
  6
Continuous
 62
     7
100
AcDbLine
 10
741.4915905698306
 20
-582.723512927765
 30
0.0
 11
741.4915905695168
 21
-581.7235129280757
 31
0.0
  0
LINE
  5
159
330
1F
100
AcDbEntity
  8
0
  6
Continuous
 62
     7
100
AcDbLine
 10
741.4915905695168
 20
-580.2235129280772
 30
0.0
 11
741.4915905695168
 21
-581.7235129280757
 31
0.0
  0
LINE
  5
15A
330
1F
100
AcDbEntity
  8
0
  6
Continuous
 62
     7
100
AcDbLine
 10
741.4915905695168
 20
-580.2235129280772
 30
0.0
 11
741.4915905695168
 21
-579.2235129280757
 31
0.0
  0
LINE
  5
15B
330
1F
100
AcDbEntity
  8
0
  6
Continuous
 62
     7
100
AcDbLine
 10
741.4915905695168
 20
-577.7235129280773
 30
0.0
 11
741.4915905695168
 21
-579.2235129280757
 31
0.0
  0
LINE
  5
15C
330
1F
100
AcDbEntity
  8
0
  6
Continuous
 62
     7
100
AcDbLine
 10
741.4915905695168
 20
-577.7235129280773
 30
0.0
 11
741.4915905695168
 21
-576.0173940098596
 31
0.0
  0
LINE
  5
15D
330
1F
100
AcDbEntity
  8
0
  6
Continuous
 62
     7
100
AcDbLine
 10
742.1915905695166
 20
-586.0235129280757
 30
0.0
 11
742.1915905695166
 21
-585.9235129280758
 31
0.0
  0
LINE
  5
15E
330
1F
100
AcDbEntity
  8
0
  6
Continuous
 62
     7
100
AcDbLine
 10
742.1915905695166
 20
-580.9235129280758
 30
0.0
 11
742.1915905692028
 21
-581.0235129277615
 31
0.0
  0
LINE
  5
15F
330
1F
100
AcDbEntity
  8
0
  6
Continuous
 62
     7
100
AcDbLine
 10
834.9915905695168
 20
-586.7235129280756
 30
0.0
 11
834.291590569517
 21
-586.0235129280757
 31
0.0
  0
LINE
  5
160
330
1F
100
AcDbEntity
  8
0
  6
Continuous
 62
     7
100
AcDbLine
 10
834.9915905695168
 20
-582.7235129280792
 30
0.0
 11
834.9920905692013
 21
-584.2240129283897
 31
0.0
  0
LINE
  5
161
330
1F
100
AcDbEntity
  8
0
  6
Continuous
 62
     7
100
AcDbLine
 10
834.291590569517
 20
-585.9235129280758
 30
0.0
 11
834.992590569517
 21
-585.2225129280777
 31
0.0
  0
LINE
  5
162
330
1F
100
AcDbEntity
  8
0
  6
Continuous
 62
     7
100
AcDbLine
 10
834.2915905698308
 20
-583.5235129277615
 30
0.0
 11
834.9920905692013
 21
-584.2240129283897
 31
0.0
  0
LINE
  5
163
330
1F
100
AcDbEntity
  8
0
  6
Continuous
 62
     7
100
AcDbLine
 10
834.9915905695168
 20
-586.7235129280756
 30
0.0
 11
834.9915905695168
 21
-598.9835129280757
 31
0.0
  0
LINE
  5
164
330
1F
100
AcDbEntity
  8
0
  6
Continuous
 62
     7
100
AcDbLine
 10
834.992590569517
 20
-585.2225129280777
 30
0.0
 11
834.9920905692013
 21
-584.2240129283897
 31
0.0
  0
LINE
  5
165
330
1F
100
AcDbEntity
  8
0
  6
Continuous
 62
     7
100
AcDbLine
 10
834.992590569517
 20
-585.2225129280777
 30
0.0
 11
834.9915905695168
 21
-586.7235129280756
 31
0.0
  0
LINE
  5
166
330
1F
100
AcDbEntity
  8
0
  6
Continuous
 62
     7
100
AcDbLine
 10
834.9915905695168
 20
-580.2235129280776
 30
0.0
 11
834.9915905695168
 21
-581.7235129280791
 31
0.0
  0
LINE
  5
167
330
1F
100
AcDbEntity
  8
0
  6
Continuous
 62
     7
100
AcDbLine
 10
834.9915905695168
 20
-580.2235129280776
 30
0.0
 11
834.991590569203
 21
-579.2235129283933
 31
0.0
  0
LINE
  5
168
330
1F
100
AcDbEntity
  8
0
  6
Continuous
 62
     7
100
AcDbLine
 10
834.9915905695168
 20
-577.7235129280776
 30
0.0
 11
834.991590569203
 21
-579.2235129283933
 31
0.0
  0
LINE
  5
169
330
1F
100
AcDbEntity
  8
0
  6
Continuous
 62
     7
100
AcDbLine
 10
834.9915905695168
 20
-577.7235129280776
 30
0.0
 11
834.9915905695168
 21
-576.0173940098632
 31
0.0
  0
LINE
  5
16A
330
1F
100
AcDbEntity
  8
0
  6
Continuous
 62
     7
100
AcDbLine
 10
834.291590569517
 20
-585.9235129280758
 30
0.0
 11
834.291590569517
 21
-586.0235129280757
 31
0.0
  0
LINE
  5
16B
330
1F
100
AcDbEntity
  8
0
  6
Continuous
 62
     7
100
AcDbLine
 10
834.9915905695168
 20
-586.7235129280756
 30
0.0
 11
830.9915905695168
 21
-586.7225128453673
 31
0.0
  0
LINE
  5
16C
330
1F
100
AcDbEntity
  8
1
  6
Continuous
 62
     7
100
AcDbLine
 10
884.0905897503924
 20
-590.0735129280698
 30
0.0
 11
890.0905897503924
 21
-590.0735129280698
 31
0.0
  0
LINE
  5
16D
330
1F
100
AcDbEntity
  8
0
  6
Continuous
 62
     7
100
AcDbLine
 10
890.0905897503924
 20
-590.0735129280698
 30
0.0
 11
890.0905897503906
 21
-596.3735129280705
 31
0.0
  0
LINE
  5
16E
330
1F
100
AcDbEntity
  8
0
  6
Continuous
 62
     7
100
AcDbLine
 10
832.7714745427909
 20
-557.3281723112829
 30
0.0
 11
827.0172440758158
 21
-525.8491468154813
 31
0.0
  0
LINE
  5
16F
330
1F
100
AcDbEntity
  8
0
  6
Continuous
 62
     7
100
AcDbLine
 10
749.6167753789657
 20
-525.0239724999147
 30
0.0
 11
745.7900207290811
 21
-545.9585714669316
 31
0.0
  0
LINE
  5
170
330
1F
100
AcDbEntity
  8
1
  6
Continuous
 62
     7
100
AcDbLine
 10
826.866405760067
 20
-525.0239724999147
 30
0.0
 11
827.0172440758158
 21
-525.8491468154813
 31
0.0
  0
LINE
  5
171
330
1F
100
AcDbEntity
  8
0
  6
Continuous
 62
     7
100
AcDbLine
 10
741.4915905695168
 20
-580.2235129280772
 30
0.0
 11
834.9915905695168
 21
-580.2235129280776
 31
0.0
  0
LINE
  5
172
330
1F
100
AcDbEntity
  8
0
  6
Continuous
 62
     7
100
AcDbLine
 10
741.4915905695168
 20
-581.7235129280757
 30
0.0
 11
834.9915905695168
 21
-581.7235129280791
 31
0.0
  0
LINE
  5
173
330
1F
100
AcDbEntity
  8
0
  6
Continuous
 62
     7
100
AcDbLine
 10
834.991590569203
 20
-579.2235129283933
 30
0.0
 11
741.4915905695168
 21
-579.2235129280757
 31
0.0
  0
LINE
  5
174
330
1F
100
AcDbEntity
  8
0
  6
Continuous
 62
     7
100
AcDbLine
 10
741.4915905695168
 20
-577.7235129280773
 30
0.0
 11
834.9915905695168
 21
-577.7235129280776
 31
0.0
  0
ARC
  5
175
330
1F
100
AcDbEntity
  8
Sichtbare_Kanten_TC_020513_DIN_
  6
Continuous
 62
     7
100
AcDbCircle
 10
791.2415905695168
 20
-548.0689458205966
 30
0.0
 40
0.375
100
AcDbArc
 50
180.0
 51
299.9816393687452
  0
ARC
  5
176
330
1F
100
AcDbEntity
  8
Sichtbare_Kanten_TC_020513_DIN_
  6
Continuous
 62
     7
100
AcDbCircle
 10
793.4915905695168
 20
-546.7708688975197
 30
0.0
 40
0.3749999999993487
100
AcDbArc
 50
299.9816393687539
 51
119.9816393689257
  0
ARC
  5
177
330
1F
100
AcDbEntity
  8
Sichtbare_Kanten_TC_020513_DIN_
  6
Continuous
 62
     7
100
AcDbCircle
 10
793.4915905695168
 20
-545.4735129280796
 30
0.0
 40
0.375
100
AcDbArc
 50
270.0
 51
90.0
  0
ARC
  5
178
330
1F
100
AcDbEntity
  8
Sichtbare_Kanten_TC_020513_DIN_
  6
Continuous
 62
     7
100
AcDbCircle
 10
793.4915905695168
 20
-544.1761569586397
 30
0.0
 40
0.3749999999999319
100
AcDbArc
 50
240.0183606310569
 51
60.01836063125482
  0
ARC
  5
179
330
1F
100
AcDbEntity
  8
Sichtbare_Kanten_TC_020513_DIN_
  6
Continuous
 62
     7
100
AcDbCircle
 10
791.2415905695168
 20
-542.8780800355626
 30
0.0
 40
0.3749999999992502
100
AcDbArc
 50
60.01836063123748
 51
180.0
  0
ARC
  5
17A
330
1F
100
AcDbEntity
  8
Sichtbare_Kanten_TC_020513_DIN_
  6
Continuous
 62
     7
100
AcDbCircle
 10
783.6665905695165
 20
-543.7867338817166
 30
0.0
 40
0.375
100
AcDbArc
 50
0.0
 51
180.0
  0
ARC
  5
17B
330
1F
100
AcDbEntity
  8
Sichtbare_Kanten_TC_020513_DIN_
  6
Continuous
 62
     7
100
AcDbCircle
 10
783.6665905695165
 20
-547.1602919744427
 30
0.0
 40
0.375
100
AcDbArc
 50
180.0
 51
0.0
  0
ARC
  5
17C
330
1F
100
AcDbEntity
  8
Sichtbare_Kanten_TC_020513_DIN_
  6
Continuous
 62
     7
100
AcDbCircle
 10
785.1665905695165
 20
-548.0256765898276
 30
0.0
 40
0.375
100
AcDbArc
 50
180.0
 51
240.0183606310957
  0
ARC
  5
17D
330
1F
100
AcDbEntity
  8
Sichtbare_Kanten_TC_020513_DIN_
  6
Continuous
 62
     7
100
AcDbCircle
 10
788.2415905695168
 20
-549.7997150513656
 30
0.0
 40
0.3750000000001289
100
AcDbArc
 50
240.0183606310743
 51
60.01836063124615
  0
ARC
  5
17E
330
1F
100
AcDbEntity
  8
Sichtbare_Kanten_TC_020513_DIN_
  6
Continuous
 62
     7
100
AcDbCircle
 10
785.1665905695165
 20
-542.9213492663316
 30
0.0
 40
0.375
100
AcDbArc
 50
0.0
 51
180.0
  0
ARC
  5
17F
330
1F
100
AcDbEntity
  8
Sichtbare_Kanten_TC_020513_DIN_
  6
Continuous
 62
     7
100
AcDbCircle
 10
789.7415905695168
 20
-548.9343304359807
 30
0.0
 40
0.375
100
AcDbArc
 50
180.0
 51
0.0
  0
ARC
  5
180
330
1F
100
AcDbEntity
  8
Sichtbare_Kanten_TC_020513_DIN_
  6
Continuous
 62
     7
100
AcDbCircle
 10
789.7415905695168
 20
-542.0126954201776
 30
0.0
 40
0.375
100
AcDbArc
 50
0.0
 51
144.0904238230538
  0
ARC
  5
181
330
1F
100
AcDbEntity
  8
Sichtbare_Kanten_TC_020513_DIN_
  6
Continuous
 62
     7
100
AcDbCircle
 10
786.7415905695168
 20
-542.0126954201776
 30
0.0
 40
0.3749999999992067
100
AcDbArc
 50
35.90957617704809
 51
180.0
  0
ARC
  5
182
330
1F
100
AcDbEntity
  8
Sichtbare_Kanten_TC_020513_DIN_
  6
Continuous
 62
     7
100
AcDbCircle
 10
786.7415905695168
 20
-547.1602919744427
 30
0.0
 40
0.375
100
AcDbArc
 50
180.0
 51
0.0
  0
ARC
  5
183
330
1F
100
AcDbEntity
  8
0
  6
Continuous
 62
     7
100
AcDbCircle
 10
930.591589750398
 20
-525.4735129280748
 30
0.0
 40
2.5
100
AcDbArc
 50
359.9999999999948
 51
89.99999999997915
  0
ARC
  5
184
330
1F
100
AcDbEntity
  8
0
  6
Continuous
 62
     7
100
AcDbCircle
 10
892.591589750398
 20
-525.4735129280705
 30
0.0
 40
2.5
100
AcDbArc
 50
89.99999999997915
 51
179.9999999999922
  0
ARC
  5
185
330
1F
100
AcDbEntity
  8
0
  6
Continuous
 62
     7
100
AcDbCircle
 10
824.4071551824634
 20
-525.473512928079
 30
0.0
 40
2.499999999999546
100
AcDbArc
 50
10.35905248808724
 51
90.0
  0
ARC
  5
186
330
1F
100
AcDbEntity
  8
0
  6
Continuous
 62
     7
100
AcDbCircle
 10
747.4915905695168
 20
-576.0173940098632
 30
0.0
 40
5.999999999999777
100
AcDbArc
 50
169.6409475119158
 51
179.9999999999653
  0
ARC
  5
187
330
1F
100
AcDbEntity
  8
0
  6
Continuous
 62
     7
100
AcDbCircle
 10
752.0760259565702
 20
-525.4735129280755
 30
0.0
 40
2.5
100
AcDbArc
 50
90.0
 51
169.640947511996
  0
ARC
  5
188
330
1F
100
AcDbEntity
  8
0
  6
Continuous
 62
     7
100
AcDbCircle
 10
828.9915905695168
 20
-576.0173940098632
 30
0.0
 40
6.0
100
AcDbArc
 50
0.0
 51
10.35905248808418
  0
CIRCLE
  5
189
330
1F
100
AcDbEntity
  8
0
  6
Continuous
 62
     7
100
AcDbCircle
 10
812.2415905695168
 20
-592.473512928075
 30
0.0
 40
2.400000000000546
  0
CIRCLE
  5
18A
330
1F
100
AcDbEntity
  8
0
  6
Continuous
 62
     7
100
AcDbCircle
 10
764.2415905695168
 20
-592.4735129280743
 30
0.0
 40
2.400000000000546
  0
SPLINE
  5
18B
330
1F
100
AcDbEntity
  8
0
  6
Continuous
 62
     7
100
AcDbSpline
210
0.0
220
0.0
230
1.0
 70
     8
 71
     3
 72
     9
 73
     5
 74
     3
 42
0.000000001
 43
0.0000000001
 44
0.00000001
 40
0.0
 40
0.0
 40
0.0
 40
0.0
 40
1.898985317032199
 40
3.724389486467738
 40
3.724389486467738
 40
3.724389486467738
 40
3.724389486467738
 10
825.043322117576
 20
-529.9735129280796
 30
0.0
 10
824.4723444779719
 20
-529.6846361707679
 30
0.0
 10
823.3525132127293
 20
-529.1180759594636
 30
0.0
 10
822.1018988843283
 20
-529.0210617094134
 30
0.0
 10
821.4889456405888
 20
-528.9735129280797
 30
0.0
 11
825.043322117576
 21
-529.9735129280796
 31
0.0
 11
823.2963887550534
 21
-529.2289532822622
 31
0.0
 11
821.4889456405888
 21
-528.9735129280797
 31
0.0
  0
SPLINE
  5
18C
330
1F
100
AcDbEntity
  8
0
  6
Continuous
 62
     7
100
AcDbSpline
210
0.0
220
0.0
230
1.0
 70
     8
 71
     3
 72
     9
 73
     5
 74
     3
 42
0.000000001
 43
0.0000000001
 44
0.00000001
 40
0.0
 40
0.0
 40
0.0
 40
0.0
 40
1.732985525437065
 40
3.385012758544272
 40
3.385012758544272
 40
3.385012758544272
 40
3.385012758544272
 10
827.5212037051049
 20
-561.9735129280797
 30
0.0
 10
828.1068102541858
 20
-561.933214270384
 30
0.0
 10
829.250666104834
 20
-561.8544995313141
 30
0.0
 10
830.2313662599191
 20
-561.2624552221349
 30
0.0
 10
830.7099887842421
 20
-560.9735129280797
 30
0.0
 11
827.5212037051049
 21
-561.9735129280797
 31
0.0
 11
829.2352600234167
 21
-561.7180725738971
 31
0.0
 11
830.7099887842421
 21
-560.9735129280797
 31
0.0
  0
SPLINE
  5
18D
330
1F
100
AcDbEntity
  8
0
  6
Continuous
 62
     7
100
AcDbSpline
210
0.0
220
0.0
230
1.0
 70
     8
 71
     3
 72
     9
 73
     5
 74
     3
 42
0.000000001
 43
0.0000000001
 44
0.00000001
 40
0.0
 40
0.0
 40
0.0
 40
0.0
 40
1.652027233108222
 40
3.385012758545061
 40
3.385012758545061
 40
3.385012758545061
 40
3.385012758545061
 10
745.7731923547906
 20
-560.9735129280797
 30
0.0
 10
746.2518148791138
 20
-561.2624552221348
 30
0.0
 10
747.2325150341997
 20
-561.8544995313141
 30
0.0
 10
748.3763708848478
 20
-561.9332142703838
 30
0.0
 10
748.9619774339287
 20
-561.9735129280797
 30
0.0
 11
745.7731923547906
 21
-560.9735129280797
 31
0.0
 11
747.2479211156171
 21
-561.7180725738971
 31
0.0
 11
748.9619774339287
 21
-561.9735129280797
 31
0.0
  0
SPLINE
  5
18E
330
1F
100
AcDbEntity
  8
0
  6
Continuous
 62
     7
100
AcDbSpline
210
0.0
220
0.0
230
1.0
 70
     8
 71
     3
 72
     9
 73
     5
 74
     3
 42
0.000000001
 43
0.0000000001
 44
0.00000001
 40
0.0
 40
0.0
 40
0.0
 40
0.0
 40
1.825404169435554
 40
3.724389486467709
 40
3.724389486467709
 40
3.724389486467709
 40
3.724389486467709
 10
754.9942354984448
 20
-528.9735129280797
 30
0.0
 10
754.3812822547052
 20
-529.0210617094133
 30
0.0
 10
753.1306679263043
 20
-529.118075959464
 30
0.0
 10
752.0108366610617
 20
-529.6846361707679
 30
0.0
 10
751.4398590214576
 20
-529.9735129280796
 30
0.0
 11
754.9942354984448
 21
-528.9735129280797
 31
0.0
 11
753.1867923839802
 21
-529.2289532822623
 31
0.0
 11
751.4398590214576
 21
-529.9735129280796
 31
0.0
  0
MTEXT
  5
190
330
1F
100
AcDbEntity
  8
1
 62
     7
100
AcDbMText
 10
831.2043248822913
 20
-666.6002016129041
 30
0.0
 40
4.5
 41
0.0
 71
     4
 72
     1
  1
MFON 16.32\PHood with pegs, side entry, M32, high construction - LS TYPE
  7
CONVERTER_12
 73
     1
 44
0.90036014405762
  0
MTEXT
  5
191
330
1F
100
AcDbEntity
  8
1
 62
     7
100
AcDbMText
 10
943.6043248822914
 20
-669.039562192148
 30
0.0
 40
4.5
 41
0.0
 71
     5
 72
     1
  1
1:1
  7
CONVERTER_11
 73
     1
 44
1.32052821128451
  0
MTEXT
  5
192
330
1F
100
AcDbEntity
  8
1
 62
     7
100
AcDbMText
 10
807.5280241935487
 20
-670.3502016129041
 30
0.0
 40
3.0
 41
0.0
 71
     4
 72
     1
  1
Radice
  7
CONVERTER_11
 73
     1
 44
1.32052821128451
  0
MTEXT
  5
193
330
1F
100
AcDbEntity
  8
1
 62
     7
100
AcDbMText
 10
807.5280241935487
 20
-662.8395621921482
 30
0.0
 40
3.0
 41
0.0
 71
     4
 72
     1
  1
14/01/14
  7
CONVERTER_11
 73
     1
 44
1.32052821128451
  0
DIMENSION
  5
19F
330
1F
100
AcDbEntity
  8
1
100
AcDbDimension
  2
*D3
 10
741.4915905695168
 20
-608.9835129280757
 30
0.0
 11
788.2415905695168
 21
-605.3335129280757
 31
0.0
 70
    32
  1
<>
 71
     5
 42
-1.0
 53
0.00013888888889
  3
ME10_DIM_10
100
AcDbAlignedDimension
 13
834.9915905695168
 23
-598.9835129280757
 33
0.0
 14
741.4915905695168
 24
-598.9835129280757
 34
0.0
100
AcDbRotatedDimension
  0
DIMENSION
  5
1AA
330
1F
100
AcDbEntity
  8
1
100
AcDbDimension
  2
*D4
 10
836.854246386232
 20
-524.0509851028244
 30
0.0
 11
843.1743124283653
 21
-539.1611412512952
 31
0.0
 70
    33
  1
<>
 71
     5
 42
-1.0
 53
-79.64094751191527
  3
ME10_DIM_11
100
AcDbAlignedDimension
 13
832.7714745427909
 23
-557.3281723112829
 33
0.0
 14
827.0172440758158
 24
-525.8491468154813
 34
0.0
  0
DIMENSION
  5
1B5
330
1F
100
AcDbEntity
  8
1
100
AcDbDimension
  2
*D5
 10
874.0905897503924
 20
-598.9735129280704
 30
0.0
 11
870.5905897503924
 21
-560.9735129280705
 31
0.0
 70
    32
  1
<>
 71
     5
 42
-1.0
 53
90.0
  3
ME10_DIM_12
100
AcDbAlignedDimension
 13
892.591589750399
 23
-522.9735129280705
 33
0.0
 14
890.0915897503908
 24
-598.9735129280704
 34
0.0
 50
90.0
100
AcDbRotatedDimension
  0
DIMENSION
  5
1C0
330
1F
100
AcDbEntity
  8
1
100
AcDbDimension
  2
*D6
 10
890.0915897503908
 20
-608.9835129280757
 30
0.0
 11
911.5915897503908
 21
-605.4835129280757
 31
0.0
 70
    32
  1
<>
 71
     5
 42
-1.0
 53
0.00013888888889
  3
ME10_DIM_13
100
AcDbAlignedDimension
 13
933.0915897503908
 23
-598.9835129280754
 33
0.0
 14
890.0915897503908
 24
-598.9835129280704
 34
0.0
100
AcDbRotatedDimension
  0
ENDSEC
  0
SECTION
  2
OBJECTS
  0
DICTIONARY
  5
C
330
0
100
AcDbDictionary
281
     1
  3
ACAD_GROUP
350
D
  3
ACAD_LAYOUT
350
1A
  3
ACAD_MATERIAL
350
3B
  3
ACAD_MLEADERSTYLE
350
1C3
  3
ACAD_MLINESTYLE
350
17
  3
ACAD_PLOTSETTINGS
350
19
  3
ACAD_PLOTSTYLENAME
350
E
  3
ACAD_VISUALSTYLE
350
2A
  3
AcDbVariableDictionary
350
1C1
  0
DICTIONARY
  5
D
102
{ACAD_REACTORS
330
C
102
}
330
C
100
AcDbDictionary
281
     1
  0
DICTIONARY
  5
1A
102
{ACAD_REACTORS
330
C
102
}
330
C
100
AcDbDictionary
281
     1
  3
Layout1
350
1E
  3
Layout2
350
26
  3
Model
350
22
  0
DICTIONARY
  5
3B
102
{ACAD_REACTORS
330
C
102
}
330
C
100
AcDbDictionary
281
     1
  3
ByBlock
350
3D
  3
ByLayer
350
3C
  3
Global
350
3E
  0
DICTIONARY
  5
1C3
102
{ACAD_REACTORS
330
C
102
}
330
C
100
AcDbDictionary
281
     1
  0
DICTIONARY
  5
17
102
{ACAD_REACTORS
330
C
102
}
330
C
100
AcDbDictionary
281
     1
  3
Standard
350
18
  0
DICTIONARY
  5
19
102
{ACAD_REACTORS
330
C
102
}
330
C
100
AcDbDictionary
281
     1
  0
ACDBDICTIONARYWDFLT
  5
E
102
{ACAD_REACTORS
330
C
102
}
330
C
100
AcDbDictionary
281
     1
  3
Normal
350
F
100
AcDbDictionaryWithDefault
340
F
  0
DICTIONARY
  5
2A
102
{ACAD_REACTORS
330
C
102
}
330
C
100
AcDbDictionary
281
     1
  3
2dWireframe
350
2F
  3
3D Hidden
350
31
  3
3dWireframe
350
30
  3
Basic
350
32
  3
Brighten
350
36
  3
ColorChange
350
3A
  3
Conceptual
350
34
  3
Dim
350
35
  3
Facepattern
350
39
  3
Flat
350
2B
  3
FlatWithEdges
350
2C
  3
Gouraud
350
2D
  3
GouraudWithEdges
350
2E
  3
Linepattern
350
38
  3
Realistic
350
33
  3
Thicken
350
37
  0
DICTIONARY
  5
1C1
102
{ACAD_REACTORS
330
C
102
}
330
C
100
AcDbDictionary
281
     1
  3
DIMASSOC
350
1C4
  3
HIDETEXT
350
1C5
  0
LAYOUT
  5
1E
102
{ACAD_REACTORS
330
1A
102
}
330
1A
100
AcDbPlotSettings
  1

  2
none_device
  4

  6

 40
0.0
 41
0.0
 42
0.0
 43
0.0
 44
0.0
 45
0.0
 46
0.0
 47
0.0
 48
0.0
 49
0.0
140
0.0
141
0.0
142
1.0
143
1.0
 70
   688
 72
     0
 73
     0
 74
     5
  7

 75
    16
147
1.0
148
0.0
149
0.0
100
AcDbLayout
  1
Layout1
 70
     1
 71
     1
 10
0.0
 20
0.0
 11
12.0
 21
9.0
 12
0.0
 22
0.0
 32
0.0
 14
1.00000000000000E+20
 24
1.00000000000000E+20
 34
1.00000000000000E+20
 15
-1.00000000000000E+20
 25
-1.00000000000000E+20
 35
-1.00000000000000E+20
146
0.0
 13
0.0
 23
0.0
 33
0.0
 16
1.0
 26
0.0
 36
0.0
 17
0.0
 27
1.0
 37
0.0
 76
     0
330
1B
  0
LAYOUT
  5
26
102
{ACAD_REACTORS
330
1A
102
}
330
1A
100
AcDbPlotSettings
  1

  2
none_device
  4

  6

 40
0.0
 41
0.0
 42
0.0
 43
0.0
 44
0.0
 45
0.0
 46
0.0
 47
0.0
 48
0.0
 49
0.0
140
0.0
141
0.0
142
1.0
143
1.0
 70
   688
 72
     0
 73
     0
 74
     5
  7

 75
    16
147
1.0
148
0.0
149
0.0
100
AcDbLayout
  1
Layout2
 70
     1
 71
     2
 10
0.0
 20
0.0
 11
0.0
 21
0.0
 12
0.0
 22
0.0
 32
0.0
 14
0.0
 24
0.0
 34
0.0
 15
0.0
 25
0.0
 35
0.0
146
0.0
 13
0.0
 23
0.0
 33
0.0
 16
1.0
 26
0.0
 36
0.0
 17
0.0
 27
1.0
 37
0.0
 76
     0
330
23
  0
LAYOUT
  5
22
102
{ACAD_REACTORS
330
1A
102
}
330
1A
100
AcDbPlotSettings
  1

  2
none_device
  4

  6

 40
0.0
 41
0.0
 42
0.0
 43
0.0
 44
0.0
 45
0.0
 46
0.0
 47
0.0
 48
0.0
 49
0.0
140
0.0
141
0.0
142
1.0
143
1.0
 70
  1712
 72
     0
 73
     0
 74
     0
  7

 75
     0
147
1.0
148
0.0
149
0.0
100
AcDbLayout
  1
Model
 70
     1
 71
     0
 10
0.0
 20
0.0
 11
12.0
 21
9.0
 12
0.0
 22
0.0
 32
0.0
 14
686.9280241935486
 24
-679.100201612904
 34
0.0
 15
983.9280241935488
 25
-469.1002016129039
 35
0.0
146
0.0
 13
0.0
 23
0.0
 33
0.0
 16
1.0
 26
0.0
 36
0.0
 17
0.0
 27
1.0
 37
0.0
 76
     0
330
1F
331
29
  0
MATERIAL
  5
3D
102
{ACAD_REACTORS
330
3B
102
}
102
{ACAD_XDICTIONARY
360
1E8
102
}
330
3B
100
AcDbMaterial
  1
ByBlock
  0
MATERIAL
  5
3C
102
{ACAD_REACTORS
330
3B
102
}
102
{ACAD_XDICTIONARY
360
1E6
102
}
330
3B
100
AcDbMaterial
  1
ByLayer
  0
MATERIAL
  5
3E
102
{ACAD_REACTORS
330
3B
102
}
102
{ACAD_XDICTIONARY
360
1EA
102
}
330
3B
100
AcDbMaterial
  1
Global
  0
MLINESTYLE
  5
18
102
{ACAD_REACTORS
330
17
102
}
330
17
100
AcDbMlineStyle
  2
Standard
 70
     0
  3

 62
   256
 51
90.0
 52
90.0
 71
     2
 49
0.5
 62
   256
  6
BYLAYER
 49
-0.5
 62
   256
  6
BYLAYER
  0
ACDBPLACEHOLDER
  5
F
102
{ACAD_REACTORS
330
E
102
}
330
E
  0
VISUALSTYLE
  5
2F
102
{ACAD_REACTORS
330
2A
102
}
102
{ACAD_XDICTIONARY
360
1CE
102
}
330
2A
100
AcDbVisualStyle
  2
2dWireframe
 70
     4
 71
     0
 72
     2
 73
     0
 90
        0
 40
-0.6
 41
-30.0
 62
     5
 63
     7
 74
     1
 91
        4
 64
     7
 65
   257
 75
     1
175
     1
 42
1.0
 92
        0
 66
   257
 43
1.0
 76
     1
 77
     6
 78
     2
 67
     7
 79
     5
170
     0
171
     0
290
     0
174
     0
 93
        1
 44
0.0
173
     0
291
     0
 45
0.0
1001
ACAD
1000
AcDbSavedByObjectVersion
1070
     0
  0
VISUALSTYLE
  5
31
102
{ACAD_REACTORS
330
2A
102
}
102
{ACAD_XDICTIONARY
360
1D2
102
}
330
2A
100
AcDbVisualStyle
  2
3D Hidden
 70
     6
 71
     1
 72
     2
 73
     2
 90
        0
 40
-0.6
 41
-30.0
 62
     5
 63
     7
 74
     2
 91
        2
 64
     7
 65
   257
 75
     2
175
     1
 42
40.0
 92
        0
 66
   257
 43
1.0
 76
     1
 77
     6
 78
     2
 67
     7
 79
     3
170
     0
171
     0
290
     0
174
     0
 93
        1
 44
0.0
173
     0
291
     0
 45
0.0
1001
ACAD
1000
AcDbSavedByObjectVersion
1070
     0
  0
VISUALSTYLE
  5
30
102
{ACAD_REACTORS
330
2A
102
}
102
{ACAD_XDICTIONARY
360
1D0
102
}
330
2A
100
AcDbVisualStyle
  2
3dWireframe
 70
     5
 71
     0
 72
     2
 73
     0
 90
        0
 40
-0.6
 41
-30.0
 62
     5
 63
     7
 74
     1
 91
        4
 64
     7
 65
   257
 75
     1
175
     1
 42
1.0
 92
        0
 66
   257
 43
1.0
 76
     1
 77
     6
 78
     2
 67
     7
 79
     5
170
     0
171
     0
290
     0
174
     0
 93
        1
 44
0.0
173
     0
291
     0
 45
0.0
1001
ACAD
1000
AcDbSavedByObjectVersion
1070
     0
  0
VISUALSTYLE
  5
32
102
{ACAD_REACTORS
330
2A
102
}
102
{ACAD_XDICTIONARY
360
1D4
102
}
330
2A
100
AcDbVisualStyle
  2
Basic
 70
     7
 71
     1
 72
     0
 73
     1
 90
        0
 40
-0.6
 41
-30.0
 62
     5
 63
     7
 74
     0
 91
        4
 64
     7
 65
   257
 75
     1
175
     1
 42
1.0
 92
        8
 66
     7
 43
1.0
 76
     1
 77
     6
 78
     2
 67
     7
 79
     5
170
     0
171
     0
290
     0
174
     0
 93
        1
 44
0.0
173
     0
291
     1
 45
0.0
1001
ACAD
1000
AcDbSavedByObjectVersion
1070
     0
  0
VISUALSTYLE
  5
36
102
{ACAD_REACTORS
330
2A
102
}
102
{ACAD_XDICTIONARY
360
1DC
102
}
330
2A
100
AcDbVisualStyle
  2
Brighten
 70
    12
 71
     2
 72
     2
 73
     0
 90
        0
 40
-0.6
 41
-30.0
 62
     5
 63
     7
 74
     1
 91
        4
 64
     7
 65
   257
 75
     1
175
     1
 42
1.0
 92
        8
 66
     7
 43
1.0
 76
     1
 77
     6
 78
     2
 67
     7
 79
     5
170
     0
171
     0
290
     0
174
     0
 93
        1
 44
50.0
173
     0
291
     1
 45
0.0
1001
ACAD
1000
AcDbSavedByObjectVersion
1070
     0
  0
VISUALSTYLE
  5
3A
102
{ACAD_REACTORS
330
2A
102
}
102
{ACAD_XDICTIONARY
360
1E4
102
}
330
2A
100
AcDbVisualStyle
  2
ColorChange
 70
    16
 71
     2
 72
     2
 73
     3
 90
        0
 40
-0.6
 41
-30.0
 62
     5
 63
     8
 74
     1
 91
        4
 64
     7
 65
   257
 75
     1
175
     1
 42
1.0
 92
        8
 66
     8
 43
1.0
 76
     1
 77
     6
 78
     2
 67
     7
 79
     5
170
     0
171
     0
290
     0
174
     0
 93
        1
 44
0.0
173
     0
291
     1
 45
0.0
1001
ACAD
1000
AcDbSavedByObjectVersion
1070
     0
  0
VISUALSTYLE
  5
34
102
{ACAD_REACTORS
330
2A
102
}
102
{ACAD_XDICTIONARY
360
1D8
102
}
330
2A
100
AcDbVisualStyle
  2
Conceptual
 70
     9
 71
     3
 72
     2
 73
     0
 90
        0
 40
-0.6
 41
-30.0
 62
     5
 63
     7
 74
     2
 91
        2
 64
     7
 65
   257
 75
     1
175
     1
 42
40.0
 92
        8
 66
     7
 43
1.0
 76
     1
 77
     6
 78
     2
 67
     7
 79
     3
170
     0
171
     0
290
     0
174
     0
 93
        1
 44
0.0
173
     0
291
     0
 45
0.0
1001
ACAD
1000
AcDbSavedByObjectVersion
1070
     0
  0
VISUALSTYLE
  5
35
102
{ACAD_REACTORS
330
2A
102
}
102
{ACAD_XDICTIONARY
360
1DA
102
}
330
2A
100
AcDbVisualStyle
  2
Dim
 70
    11
 71
     2
 72
     2
 73
     0
 90
        0
 40
-0.6
 41
-30.0
 62
     5
 63
     7
 74
     1
 91
        4
 64
     7
 65
   257
 75
     1
175
     1
 42
1.0
 92
        8
 66
     7
 43
1.0
 76
     1
 77
     6
 78
     2
 67
     7
 79
     5
170
     0
171
     0
290
     0
174
     0
 93
        1
 44
-50.0
173
     0
291
     1
 45
0.0
1001
ACAD
1000
AcDbSavedByObjectVersion
1070
     0
  0
VISUALSTYLE
  5
39
102
{ACAD_REACTORS
330
2A
102
}
102
{ACAD_XDICTIONARY
360
1E2
102
}
330
2A
100
AcDbVisualStyle
  2
Facepattern
 70
    15
 71
     2
 72
     2
 73
     0
 90
        0
 40
-0.6
 41
-30.0
 62
     5
 63
     7
 74
     1
 91
        4
 64
     7
 65
   257
 75
     1
175
     1
 42
1.0
 92
        8
 66
     7
 43
1.0
 76
     1
 77
     6
 78
     2
 67
     7
 79
     5
170
     0
171
     0
290
     0
174
     0
 93
        1
 44
0.0
173
     0
291
     1
 45
0.0
1001
ACAD
1000
AcDbSavedByObjectVersion
1070
     0
  0
VISUALSTYLE
  5
2B
102
{ACAD_REACTORS
330
2A
102
}
102
{ACAD_XDICTIONARY
360
1C6
102
}
330
2A
100
AcDbVisualStyle
  2
Flat
 70
     0
 71
     2
 72
     1
 73
     1
 90
        2
 40
-0.6
 41
30.0
 62
     5
 63
     7
 74
     0
 91
        4
 64
     7
 65
   257
 75
     1
175
     1
 42
1.0
 92
        8
 66
     7
 43
1.0
 76
     1
 77
     6
 78
     2
 67
     7
 79
     5
170
     0
171
     0
290
     0
174
     0
 93
       13
 44
0.0
173
     0
291
     1
 45
0.0
1001
ACAD
1000
AcDbSavedByObjectVersion
1070
     0
  0
VISUALSTYLE
  5
2C
102
{ACAD_REACTORS
330
2A
102
}
102
{ACAD_XDICTIONARY
360
1C8
102
}
330
2A
100
AcDbVisualStyle
  2
FlatWithEdges
 70
     1
 71
     2
 72
     1
 73
     1
 90
        2
 40
-0.6
 41
30.0
 62
     5
 63
     7
 74
     1
 91
        4
 64
     7
 65
   257
 75
     1
175
     1
 42
1.0
 92
        0
 66
   257
 43
1.0
 76
     1
 77
     6
 78
     2
 67
     7
 79
     5
170
     0
171
     0
290
     0
174
     0
 93
       13
 44
0.0
173
     0
291
     1
 45
0.0
1001
ACAD
1000
AcDbSavedByObjectVersion
1070
     0
  0
VISUALSTYLE
  5
2D
102
{ACAD_REACTORS
330
2A
102
}
102
{ACAD_XDICTIONARY
360
1CA
102
}
330
2A
100
AcDbVisualStyle
  2
Gouraud
 70
     2
 71
     2
 72
     2
 73
     1
 90
        2
 40
-0.6
 41
30.0
 62
     5
 63
     7
 74
     0
 91
        4
 64
     7
 65
   257
 75
     1
175
     1
 42
1.0
 92
        0
 66
     7
 43
1.0
 76
     1
 77
     6
 78
     2
 67
     7
 79
     5
170
     0
171
     0
290
     0
174
     0
 93
       13
 44
0.0
173
     0
291
     1
 45
0.0
1001
ACAD
1000
AcDbSavedByObjectVersion
1070
     0
  0
VISUALSTYLE
  5
2E
102
{ACAD_REACTORS
330
2A
102
}
102
{ACAD_XDICTIONARY
360
1CC
102
}
330
2A
100
AcDbVisualStyle
  2
GouraudWithEdges
 70
     3
 71
     2
 72
     2
 73
     1
 90
        2
 40
-0.6
 41
30.0
 62
     5
 63
     7
 74
     1
 91
        4
 64
     7
 65
   257
 75
     1
175
     1
 42
1.0
 92
        0
 66
   257
 43
1.0
 76
     1
 77
     6
 78
     2
 67
     7
 79
     5
170
     0
171
     0
290
     0
174
     0
 93
       13
 44
0.0
173
     0
291
     1
 45
0.0
1001
ACAD
1000
AcDbSavedByObjectVersion
1070
     0
  0
VISUALSTYLE
  5
38
102
{ACAD_REACTORS
330
2A
102
}
102
{ACAD_XDICTIONARY
360
1E0
102
}
330
2A
100
AcDbVisualStyle
  2
Linepattern
 70
    14
 71
     2
 72
     2
 73
     0
 90
        0
 40
-0.6
 41
-30.0
 62
     5
 63
     7
 74
     1
 91
        4
 64
     7
 65
   257
 75
     7
175
     7
 42
1.0
 92
        8
 66
     7
 43
1.0
 76
     1
 77
     6
 78
     2
 67
     7
 79
     5
170
     0
171
     0
290
     0
174
     0
 93
        1
 44
0.0
173
     0
291
     1
 45
0.0
1001
ACAD
1000
AcDbSavedByObjectVersion
1070
     0
  0
VISUALSTYLE
  5
33
102
{ACAD_REACTORS
330
2A
102
}
102
{ACAD_XDICTIONARY
360
1D6
102
}
330
2A
100
AcDbVisualStyle
  2
Realistic
 70
     8
 71
     2
 72
     2
 73
     0
 90
        0
 40
-0.6
 41
-30.0
 62
     5
 63
     7
 74
     1
 91
        0
 64
     7
 65
   257
 75
     1
175
     1
 42
1.0
 92
        8
 66
     8
 43
1.0
 76
     1
 77
     6
 78
     2
 67
     7
 79
     5
170
     0
171
     0
290
     0
174
     0
 93
       13
 44
0.0
173
     0
291
     0
 45
0.0
1001
ACAD
1000
AcDbSavedByObjectVersion
1070
     0
  0
VISUALSTYLE
  5
37
102
{ACAD_REACTORS
330
2A
102
}
102
{ACAD_XDICTIONARY
360
1DE
102
}
330
2A
100
AcDbVisualStyle
  2
Thicken
 70
    13
 71
     2
 72
     2
 73
     0
 90
        0
 40
-0.6
 41
-30.0
 62
     5
 63
     7
 74
     1
 91
        4
 64
     7
 65
   257
 75
     1
175
     1
 42
1.0
 92
       12
 66
     7
 43
1.0
 76
     1
 77
     6
 78
     2
 67
     7
 79
     5
170
     0
171
     0
290
     0
174
     0
 93
        1
 44
0.0
173
     0
291
     1
 45
0.0
1001
ACAD
1000
AcDbSavedByObjectVersion
1070
     0
  0
DICTIONARYVAR
  5
1C4
102
{ACAD_REACTORS
330
1C1
102
}
330
1C1
100
DictionaryVariables
280
     0
  1
2
  0
DICTIONARYVAR
  5
1C5
102
{ACAD_REACTORS
330
1C1
102
}
330
1C1
100
DictionaryVariables
280
     0
  1
1
  0
DICTIONARY
  5
1E8
330
3D
100
AcDbDictionary
280
     1
281
     1
  3
ACAD_XREC_ROUNDTRIP
360
1E9
  0
DICTIONARY
  5
1E6
330
3C
100
AcDbDictionary
280
     1
281
     1
  3
ACAD_XREC_ROUNDTRIP
360
1E7
  0
DICTIONARY
  5
1EA
330
3E
100
AcDbDictionary
280
     1
281
     1
  3
ACAD_XREC_ROUNDTRIP
360
1EB
  0
DICTIONARY
  5
1CE
330
2F
100
AcDbDictionary
280
     1
281
     1
  3
ACAD_XREC_ROUNDTRIP
360
1CF
  0
DICTIONARY
  5
1D2
330
31
100
AcDbDictionary
280
     1
281
     1
  3
ACAD_XREC_ROUNDTRIP
360
1D3
  0
DICTIONARY
  5
1D0
330
30
100
AcDbDictionary
280
     1
281
     1
  3
ACAD_XREC_ROUNDTRIP
360
1D1
  0
DICTIONARY
  5
1D4
330
32
100
AcDbDictionary
280
     1
281
     1
  3
ACAD_XREC_ROUNDTRIP
360
1D5
  0
DICTIONARY
  5
1DC
330
36
100
AcDbDictionary
280
     1
281
     1
  3
ACAD_XREC_ROUNDTRIP
360
1DD
  0
DICTIONARY
  5
1E4
330
3A
100
AcDbDictionary
280
     1
281
     1
  3
ACAD_XREC_ROUNDTRIP
360
1E5
  0
DICTIONARY
  5
1D8
330
34
100
AcDbDictionary
280
     1
281
     1
  3
ACAD_XREC_ROUNDTRIP
360
1D9
  0
DICTIONARY
  5
1DA
330
35
100
AcDbDictionary
280
     1
281
     1
  3
ACAD_XREC_ROUNDTRIP
360
1DB
  0
DICTIONARY
  5
1E2
330
39
100
AcDbDictionary
280
     1
281
     1
  3
ACAD_XREC_ROUNDTRIP
360
1E3
  0
DICTIONARY
  5
1C6
330
2B
100
AcDbDictionary
280
     1
281
     1
  3
ACAD_XREC_ROUNDTRIP
360
1C7
  0
DICTIONARY
  5
1C8
330
2C
100
AcDbDictionary
280
     1
281
     1
  3
ACAD_XREC_ROUNDTRIP
360
1C9
  0
DICTIONARY
  5
1CA
330
2D
100
AcDbDictionary
280
     1
281
     1
  3
ACAD_XREC_ROUNDTRIP
360
1CB
  0
DICTIONARY
  5
1CC
330
2E
100
AcDbDictionary
280
     1
281
     1
  3
ACAD_XREC_ROUNDTRIP
360
1CD
  0
DICTIONARY
  5
1E0
330
38
100
AcDbDictionary
280
     1
281
     1
  3
ACAD_XREC_ROUNDTRIP
360
1E1
  0
DICTIONARY
  5
1D6
330
33
100
AcDbDictionary
280
     1
281
     1
  3
ACAD_XREC_ROUNDTRIP
360
1D7
  0
DICTIONARY
  5
1DE
330
37
100
AcDbDictionary
280
     1
281
     1
  3
ACAD_XREC_ROUNDTRIP
360
1DF
  0
XRECORD
  5
1E9
102
{ACAD_REACTORS
330
1E8
102
}
330
1E8
100
AcDbXrecord
280
     1
102
MATERIAL
148
0.0
149
0.0
149
0.0
 93
        0
 94
      127
282
     0
 72
     1
 77
     1
171
     1
175
     1
179
     1
273
     0
  0
XRECORD
  5
1E7
102
{ACAD_REACTORS
330
1E6
102
}
330
1E6
100
AcDbXrecord
280
     1
102
MATERIAL
148
0.0
149
0.0
149
0.0
 93
        0
 94
      127
282
     0
 72
     1
 77
     1
171
     1
175
     1
179
     1
273
     0
  0
XRECORD
  5
1EB
102
{ACAD_REACTORS
330
1EA
102
}
330
1EA
100
AcDbXrecord
280
     1
102
MATERIAL
148
0.0
149
0.0
149
0.0
 93
        0
 94
      127
282
     0
 72
     1
 77
     1
171
     1
175
     1
179
     1
273
     0
  0
XRECORD
  5
1CF
102
{ACAD_REACTORS
330
1CE
102
}
330
1CE
100
AcDbXrecord
280
     1
102
RTVSPropertyOp0
 70
     1
102
RTVSPropertyOp1
 70
     1
102
RTVSPropertyOp2
 70
     1
102
RTVSPropertyOp3
 70
     1
102
RTVSPropertyOp4
 70
     1
102
RTVSPropertyOp5
 70
     1
102
RTVSPropertyOp6
 70
     1
102
RTVSPropertyOp7
 70
     1
102
RTVSPropertyOp8
 70
     1
102
RTVSPropertyOp9
 70
     1
102
RTVSPropertyOp10
 70
     1
102
RTVSPropertyOp11
 70
     1
102
RTVSPropertyOp12
 70
     1
102
RTVSPropertyOp13
 70
     1
102
RTVSPropertyOp14
 70
     1
102
RTVSPropertyOp15
 70
     1
102
RTVSPropertyOp16
 70
     1
102
RTVSPropertyOp17
 70
     1
102
RTVSPropertyOp18
 70
     1
102
RTVSPropertyOp19
 70
     1
102
RTVSPropertyOp20
 70
     1
102
RTVSPropertyOp21
 70
     1
102
RTVSPropertyOp22
 70
     1
102
RTVSPropertyOp23
 70
     1
102
RTVSPropertyOp24
 70
     1
102
RTVSPropertyOp25
 70
     1
102
RTVSPropertyOp26
 70
     1
102
RTVSPropertyOp27
 70
     1
102
RTVSPropertyOp28
 70
     1
102
RTVSPropertyOp29
 70
     1
102
RTVSPropertyOp30
 70
     1
102
RTVSPropertyOp31
 70
     1
102
RTVSPropertyOp32
 70
     1
  0
XRECORD
  5
1D3
102
{ACAD_REACTORS
330
1D2
102
}
330
1D2
100
AcDbXrecord
280
     1
102
RTVSPropertyOp0
 70
     1
102
RTVSPropertyOp1
 70
     1
102
RTVSPropertyOp2
 70
     1
102
RTVSPropertyOp3
 70
     1
102
RTVSPropertyOp4
 70
     1
102
RTVSPropertyOp5
 70
     1
102
RTVSPropertyOp6
 70
     1
102
RTVSPropertyOp7
 70
     1
102
RTVSPropertyOp8
 70
     1
102
RTVSPropertyOp9
 70
     1
102
RTVSPropertyOp10
 70
     1
102
RTVSPropertyOp11
 70
     1
102
RTVSPropertyOp12
 70
     1
102
RTVSPropertyOp13
 70
     1
102
RTVSPropertyOp14
 70
     1
102
RTVSPropertyOp15
 70
     1
102
RTVSPropertyOp16
 70
     1
102
RTVSPropertyOp17
 70
     1
102
RTVSPropertyOp18
 70
     1
102
RTVSPropertyOp19
 70
     1
102
RTVSPropertyOp20
 70
     1
102
RTVSPropertyOp21
 70
     1
102
RTVSPropertyOp22
 70
     1
102
RTVSPropertyOp23
 70
     1
102
RTVSPropertyOp24
 70
     1
102
RTVSPropertyOp25
 70
     1
102
RTVSPropertyOp26
 70
     1
102
RTVSPropertyOp27
 70
     1
102
RTVSPropertyOp28
 70
     1
102
RTVSPropertyOp29
 70
     1
102
RTVSPropertyOp30
 70
     1
102
RTVSPropertyOp31
 70
     1
102
RTVSPropertyOp32
 70
     1
  0
XRECORD
  5
1D1
102
{ACAD_REACTORS
330
1D0
102
}
330
1D0
100
AcDbXrecord
280
     1
102
RTVSPropertyOp0
 70
     1
102
RTVSPropertyOp1
 70
     1
102
RTVSPropertyOp2
 70
     1
102
RTVSPropertyOp3
 70
     1
102
RTVSPropertyOp4
 70
     1
102
RTVSPropertyOp5
 70
     1
102
RTVSPropertyOp6
 70
     1
102
RTVSPropertyOp7
 70
     1
102
RTVSPropertyOp8
 70
     1
102
RTVSPropertyOp9
 70
     1
102
RTVSPropertyOp10
 70
     1
102
RTVSPropertyOp11
 70
     1
102
RTVSPropertyOp12
 70
     1
102
RTVSPropertyOp13
 70
     1
102
RTVSPropertyOp14
 70
     1
102
RTVSPropertyOp15
 70
     1
102
RTVSPropertyOp16
 70
     1
102
RTVSPropertyOp17
 70
     1
102
RTVSPropertyOp18
 70
     1
102
RTVSPropertyOp19
 70
     1
102
RTVSPropertyOp20
 70
     1
102
RTVSPropertyOp21
 70
     1
102
RTVSPropertyOp22
 70
     1
102
RTVSPropertyOp23
 70
     1
102
RTVSPropertyOp24
 70
     1
102
RTVSPropertyOp25
 70
     1
102
RTVSPropertyOp26
 70
     1
102
RTVSPropertyOp27
 70
     1
102
RTVSPropertyOp28
 70
     1
102
RTVSPropertyOp29
 70
     1
102
RTVSPropertyOp30
 70
     1
102
RTVSPropertyOp31
 70
     1
102
RTVSPropertyOp32
 70
     1
  0
XRECORD
  5
1D5
102
{ACAD_REACTORS
330
1D4
102
}
330
1D4
100
AcDbXrecord
280
     1
102
RTVSPropertyOp0
 70
     1
102
RTVSPropertyOp1
 70
     1
102
RTVSPropertyOp2
 70
     1
102
RTVSPropertyOp3
 70
     1
102
RTVSPropertyOp4
 70
     1
102
RTVSPropertyOp5
 70
     1
102
RTVSPropertyOp6
 70
     1
102
RTVSPropertyOp7
 70
     1
102
RTVSPropertyOp8
 70
     1
102
RTVSPropertyOp9
 70
     1
102
RTVSPropertyOp10
 70
     1
102
RTVSPropertyOp11
 70
     1
102
RTVSPropertyOp12
 70
     1
102
RTVSPropertyOp13
 70
     1
102
RTVSPropertyOp14
 70
     1
102
RTVSPropertyOp15
 70
     1
102
RTVSPropertyOp16
 70
     1
102
RTVSPropertyOp17
 70
     1
102
RTVSPropertyOp18
 70
     1
102
RTVSPropertyOp19
 70
     1
102
RTVSPropertyOp20
 70
     1
102
RTVSPropertyOp21
 70
     1
102
RTVSPropertyOp22
 70
     1
102
RTVSPropertyOp23
 70
     1
102
RTVSPropertyOp24
 70
     1
102
RTVSPropertyOp25
 70
     1
102
RTVSPropertyOp26
 70
     1
102
RTVSPropertyOp27
 70
     1
102
RTVSPropertyOp28
 70
     1
102
RTVSPropertyOp29
 70
     1
102
RTVSPropertyOp30
 70
     1
102
RTVSPropertyOp31
 70
     1
102
RTVSPropertyOp32
 70
     1
  0
XRECORD
  5
1DD
102
{ACAD_REACTORS
330
1DC
102
}
330
1DC
100
AcDbXrecord
280
     1
102
RTVSPropertyOp0
 70
     1
102
RTVSPropertyOp1
 70
     1
102
RTVSPropertyOp2
 70
     1
102
RTVSPropertyOp3
 70
     1
102
RTVSPropertyOp4
 70
     1
102
RTVSPropertyOp5
 70
     1
102
RTVSPropertyOp6
 70
     1
102
RTVSPropertyOp7
 70
     1
102
RTVSPropertyOp8
 70
     1
102
RTVSPropertyOp9
 70
     1
102
RTVSPropertyOp10
 70
     1
102
RTVSPropertyOp11
 70
     1
102
RTVSPropertyOp12
 70
     1
102
RTVSPropertyOp13
 70
     1
102
RTVSPropertyOp14
 70
     1
102
RTVSPropertyOp15
 70
     1
102
RTVSPropertyOp16
 70
     1
102
RTVSPropertyOp17
 70
     1
102
RTVSPropertyOp18
 70
     1
102
RTVSPropertyOp19
 70
     1
102
RTVSPropertyOp20
 70
     1
102
RTVSPropertyOp21
 70
     1
102
RTVSPropertyOp22
 70
     1
102
RTVSPropertyOp23
 70
     1
102
RTVSPropertyOp24
 70
     1
102
RTVSPropertyOp25
 70
     1
102
RTVSPropertyOp26
 70
     1
102
RTVSPropertyOp27
 70
     1
102
RTVSPropertyOp28
 70
     1
102
RTVSPropertyOp29
 70
     1
102
RTVSPropertyOp30
 70
     1
102
RTVSPropertyOp31
 70
     1
102
RTVSPropertyOp32
 70
     1
  0
XRECORD
  5
1E5
102
{ACAD_REACTORS
330
1E4
102
}
330
1E4
100
AcDbXrecord
280
     1
102
RTVSPropertyOp0
 70
     1
102
RTVSPropertyOp1
 70
     1
102
RTVSPropertyOp2
 70
     1
102
RTVSPropertyOp3
 70
     1
102
RTVSPropertyOp4
 70
     1
102
RTVSPropertyOp5
 70
     1
102
RTVSPropertyOp6
 70
     1
102
RTVSPropertyOp7
 70
     1
102
RTVSPropertyOp8
 70
     1
102
RTVSPropertyOp9
 70
     1
102
RTVSPropertyOp10
 70
     1
102
RTVSPropertyOp11
 70
     1
102
RTVSPropertyOp12
 70
     1
102
RTVSPropertyOp13
 70
     1
102
RTVSPropertyOp14
 70
     1
102
RTVSPropertyOp15
 70
     1
102
RTVSPropertyOp16
 70
     1
102
RTVSPropertyOp17
 70
     1
102
RTVSPropertyOp18
 70
     1
102
RTVSPropertyOp19
 70
     1
102
RTVSPropertyOp20
 70
     1
102
RTVSPropertyOp21
 70
     1
102
RTVSPropertyOp22
 70
     1
102
RTVSPropertyOp23
 70
     1
102
RTVSPropertyOp24
 70
     1
102
RTVSPropertyOp25
 70
     1
102
RTVSPropertyOp26
 70
     1
102
RTVSPropertyOp27
 70
     1
102
RTVSPropertyOp28
 70
     1
102
RTVSPropertyOp29
 70
     1
102
RTVSPropertyOp30
 70
     1
102
RTVSPropertyOp31
 70
     1
102
RTVSPropertyOp32
 70
     1
  0
XRECORD
  5
1D9
102
{ACAD_REACTORS
330
1D8
102
}
330
1D8
100
AcDbXrecord
280
     1
102
RTVSPropertyOp0
 70
     1
102
RTVSPropertyOp1
 70
     1
102
RTVSPropertyOp2
 70
     1
102
RTVSPropertyOp3
 70
     1
102
RTVSPropertyOp4
 70
     1
102
RTVSPropertyOp5
 70
     1
102
RTVSPropertyOp6
 70
     1
102
RTVSPropertyOp7
 70
     1
102
RTVSPropertyOp8
 70
     1
102
RTVSPropertyOp9
 70
     1
102
RTVSPropertyOp10
 70
     1
102
RTVSPropertyOp11
 70
     1
102
RTVSPropertyOp12
 70
     1
102
RTVSPropertyOp13
 70
     1
102
RTVSPropertyOp14
 70
     1
102
RTVSPropertyOp15
 70
     1
102
RTVSPropertyOp16
 70
     1
102
RTVSPropertyOp17
 70
     1
102
RTVSPropertyOp18
 70
     1
102
RTVSPropertyOp19
 70
     1
102
RTVSPropertyOp20
 70
     1
102
RTVSPropertyOp21
 70
     1
102
RTVSPropertyOp22
 70
     1
102
RTVSPropertyOp23
 70
     1
102
RTVSPropertyOp24
 70
     1
102
RTVSPropertyOp25
 70
     1
102
RTVSPropertyOp26
 70
     1
102
RTVSPropertyOp27
 70
     1
102
RTVSPropertyOp28
 70
     1
102
RTVSPropertyOp29
 70
     1
102
RTVSPropertyOp30
 70
     1
102
RTVSPropertyOp31
 70
     1
102
RTVSPropertyOp32
 70
     1
  0
XRECORD
  5
1DB
102
{ACAD_REACTORS
330
1DA
102
}
330
1DA
100
AcDbXrecord
280
     1
102
RTVSPropertyOp0
 70
     1
102
RTVSPropertyOp1
 70
     1
102
RTVSPropertyOp2
 70
     1
102
RTVSPropertyOp3
 70
     1
102
RTVSPropertyOp4
 70
     1
102
RTVSPropertyOp5
 70
     1
102
RTVSPropertyOp6
 70
     1
102
RTVSPropertyOp7
 70
     1
102
RTVSPropertyOp8
 70
     1
102
RTVSPropertyOp9
 70
     1
102
RTVSPropertyOp10
 70
     1
102
RTVSPropertyOp11
 70
     1
102
RTVSPropertyOp12
 70
     1
102
RTVSPropertyOp13
 70
     1
102
RTVSPropertyOp14
 70
     1
102
RTVSPropertyOp15
 70
     1
102
RTVSPropertyOp16
 70
     1
102
RTVSPropertyOp17
 70
     1
102
RTVSPropertyOp18
 70
     1
102
RTVSPropertyOp19
 70
     1
102
RTVSPropertyOp20
 70
     1
102
RTVSPropertyOp21
 70
     1
102
RTVSPropertyOp22
 70
     1
102
RTVSPropertyOp23
 70
     1
102
RTVSPropertyOp24
 70
     1
102
RTVSPropertyOp25
 70
     1
102
RTVSPropertyOp26
 70
     1
102
RTVSPropertyOp27
 70
     1
102
RTVSPropertyOp28
 70
     1
102
RTVSPropertyOp29
 70
     1
102
RTVSPropertyOp30
 70
     1
102
RTVSPropertyOp31
 70
     1
102
RTVSPropertyOp32
 70
     1
  0
XRECORD
  5
1E3
102
{ACAD_REACTORS
330
1E2
102
}
330
1E2
100
AcDbXrecord
280
     1
102
RTVSPropertyOp0
 70
     1
102
RTVSPropertyOp1
 70
     1
102
RTVSPropertyOp2
 70
     1
102
RTVSPropertyOp3
 70
     1
102
RTVSPropertyOp4
 70
     1
102
RTVSPropertyOp5
 70
     1
102
RTVSPropertyOp6
 70
     1
102
RTVSPropertyOp7
 70
     1
102
RTVSPropertyOp8
 70
     1
102
RTVSPropertyOp9
 70
     1
102
RTVSPropertyOp10
 70
     1
102
RTVSPropertyOp11
 70
     1
102
RTVSPropertyOp12
 70
     1
102
RTVSPropertyOp13
 70
     1
102
RTVSPropertyOp14
 70
     1
102
RTVSPropertyOp15
 70
     1
102
RTVSPropertyOp16
 70
     1
102
RTVSPropertyOp17
 70
     1
102
RTVSPropertyOp18
 70
     1
102
RTVSPropertyOp19
 70
     1
102
RTVSPropertyOp20
 70
     1
102
RTVSPropertyOp21
 70
     1
102
RTVSPropertyOp22
 70
     1
102
RTVSPropertyOp23
 70
     1
102
RTVSPropertyOp24
 70
     1
102
RTVSPropertyOp25
 70
     1
102
RTVSPropertyOp26
 70
     1
102
RTVSPropertyOp27
 70
     1
102
RTVSPropertyOp28
 70
     1
102
RTVSPropertyOp29
 70
     1
102
RTVSPropertyOp30
 70
     1
102
RTVSPropertyOp31
 70
     1
102
RTVSPropertyOp32
 70
     1
  0
XRECORD
  5
1C7
102
{ACAD_REACTORS
330
1C6
102
}
330
1C6
100
AcDbXrecord
280
     1
102
RTVSPropertyOp0
 70
     1
102
RTVSPropertyOp1
 70
     1
102
RTVSPropertyOp2
 70
     1
102
RTVSPropertyOp3
 70
     1
102
RTVSPropertyOp4
 70
     1
102
RTVSPropertyOp5
 70
     1
102
RTVSPropertyOp6
 70
     1
102
RTVSPropertyOp7
 70
     1
102
RTVSPropertyOp8
 70
     1
102
RTVSPropertyOp9
 70
     1
102
RTVSPropertyOp10
 70
     1
102
RTVSPropertyOp11
 70
     1
102
RTVSPropertyOp12
 70
     1
102
RTVSPropertyOp13
 70
     1
102
RTVSPropertyOp14
 70
     1
102
RTVSPropertyOp15
 70
     1
102
RTVSPropertyOp16
 70
     1
102
RTVSPropertyOp17
 70
     1
102
RTVSPropertyOp18
 70
     1
102
RTVSPropertyOp19
 70
     1
102
RTVSPropertyOp20
 70
     1
102
RTVSPropertyOp21
 70
     1
102
RTVSPropertyOp22
 70
     1
102
RTVSPropertyOp23
 70
     1
102
RTVSPropertyOp24
 70
     1
102
RTVSPropertyOp25
 70
     1
102
RTVSPropertyOp26
 70
     1
102
RTVSPropertyOp27
 70
     1
102
RTVSPropertyOp28
 70
     1
102
RTVSPropertyOp29
 70
     1
102
RTVSPropertyOp30
 70
     1
102
RTVSPropertyOp31
 70
     1
102
RTVSPropertyOp32
 70
     1
  0
XRECORD
  5
1C9
102
{ACAD_REACTORS
330
1C8
102
}
330
1C8
100
AcDbXrecord
280
     1
102
RTVSPropertyOp0
 70
     1
102
RTVSPropertyOp1
 70
     1
102
RTVSPropertyOp2
 70
     1
102
RTVSPropertyOp3
 70
     1
102
RTVSPropertyOp4
 70
     1
102
RTVSPropertyOp5
 70
     1
102
RTVSPropertyOp6
 70
     1
102
RTVSPropertyOp7
 70
     1
102
RTVSPropertyOp8
 70
     1
102
RTVSPropertyOp9
 70
     1
102
RTVSPropertyOp10
 70
     1
102
RTVSPropertyOp11
 70
     1
102
RTVSPropertyOp12
 70
     1
102
RTVSPropertyOp13
 70
     1
102
RTVSPropertyOp14
 70
     1
102
RTVSPropertyOp15
 70
     1
102
RTVSPropertyOp16
 70
     1
102
RTVSPropertyOp17
 70
     1
102
RTVSPropertyOp18
 70
     1
102
RTVSPropertyOp19
 70
     1
102
RTVSPropertyOp20
 70
     1
102
RTVSPropertyOp21
 70
     1
102
RTVSPropertyOp22
 70
     1
102
RTVSPropertyOp23
 70
     1
102
RTVSPropertyOp24
 70
     1
102
RTVSPropertyOp25
 70
     1
102
RTVSPropertyOp26
 70
     1
102
RTVSPropertyOp27
 70
     1
102
RTVSPropertyOp28
 70
     1
102
RTVSPropertyOp29
 70
     1
102
RTVSPropertyOp30
 70
     1
102
RTVSPropertyOp31
 70
     1
102
RTVSPropertyOp32
 70
     1
  0
XRECORD
  5
1CB
102
{ACAD_REACTORS
330
1CA
102
}
330
1CA
100
AcDbXrecord
280
     1
102
RTVSPropertyOp0
 70
     1
102
RTVSPropertyOp1
 70
     1
102
RTVSPropertyOp2
 70
     1
102
RTVSPropertyOp3
 70
     1
102
RTVSPropertyOp4
 70
     1
102
RTVSPropertyOp5
 70
     1
102
RTVSPropertyOp6
 70
     1
102
RTVSPropertyOp7
 70
     1
102
RTVSPropertyOp8
 70
     1
102
RTVSPropertyOp9
 70
     1
102
RTVSPropertyOp10
 70
     1
102
RTVSPropertyOp11
 70
     1
102
RTVSPropertyOp12
 70
     1
102
RTVSPropertyOp13
 70
     1
102
RTVSPropertyOp14
 70
     1
102
RTVSPropertyOp15
 70
     1
102
RTVSPropertyOp16
 70
     1
102
RTVSPropertyOp17
 70
     1
102
RTVSPropertyOp18
 70
     1
102
RTVSPropertyOp19
 70
     1
102
RTVSPropertyOp20
 70
     1
102
RTVSPropertyOp21
 70
     1
102
RTVSPropertyOp22
 70
     1
102
RTVSPropertyOp23
 70
     1
102
RTVSPropertyOp24
 70
     1
102
RTVSPropertyOp25
 70
     1
102
RTVSPropertyOp26
 70
     1
102
RTVSPropertyOp27
 70
     1
102
RTVSPropertyOp28
 70
     1
102
RTVSPropertyOp29
 70
     1
102
RTVSPropertyOp30
 70
     1
102
RTVSPropertyOp31
 70
     1
102
RTVSPropertyOp32
 70
     1
  0
XRECORD
  5
1CD
102
{ACAD_REACTORS
330
1CC
102
}
330
1CC
100
AcDbXrecord
280
     1
102
RTVSPropertyOp0
 70
     1
102
RTVSPropertyOp1
 70
     1
102
RTVSPropertyOp2
 70
     1
102
RTVSPropertyOp3
 70
     1
102
RTVSPropertyOp4
 70
     1
102
RTVSPropertyOp5
 70
     1
102
RTVSPropertyOp6
 70
     1
102
RTVSPropertyOp7
 70
     1
102
RTVSPropertyOp8
 70
     1
102
RTVSPropertyOp9
 70
     1
102
RTVSPropertyOp10
 70
     1
102
RTVSPropertyOp11
 70
     1
102
RTVSPropertyOp12
 70
     1
102
RTVSPropertyOp13
 70
     1
102
RTVSPropertyOp14
 70
     1
102
RTVSPropertyOp15
 70
     1
102
RTVSPropertyOp16
 70
     1
102
RTVSPropertyOp17
 70
     1
102
RTVSPropertyOp18
 70
     1
102
RTVSPropertyOp19
 70
     1
102
RTVSPropertyOp20
 70
     1
102
RTVSPropertyOp21
 70
     1
102
RTVSPropertyOp22
 70
     1
102
RTVSPropertyOp23
 70
     1
102
RTVSPropertyOp24
 70
     1
102
RTVSPropertyOp25
 70
     1
102
RTVSPropertyOp26
 70
     1
102
RTVSPropertyOp27
 70
     1
102
RTVSPropertyOp28
 70
     1
102
RTVSPropertyOp29
 70
     1
102
RTVSPropertyOp30
 70
     1
102
RTVSPropertyOp31
 70
     1
102
RTVSPropertyOp32
 70
     1
  0
XRECORD
  5
1E1
102
{ACAD_REACTORS
330
1E0
102
}
330
1E0
100
AcDbXrecord
280
     1
102
RTVSPropertyOp0
 70
     1
102
RTVSPropertyOp1
 70
     1
102
RTVSPropertyOp2
 70
     1
102
RTVSPropertyOp3
 70
     1
102
RTVSPropertyOp4
 70
     1
102
RTVSPropertyOp5
 70
     1
102
RTVSPropertyOp6
 70
     1
102
RTVSPropertyOp7
 70
     1
102
RTVSPropertyOp8
 70
     1
102
RTVSPropertyOp9
 70
     1
102
RTVSPropertyOp10
 70
     1
102
RTVSPropertyOp11
 70
     1
102
RTVSPropertyOp12
 70
     1
102
RTVSPropertyOp13
 70
     1
102
RTVSPropertyOp14
 70
     1
102
RTVSPropertyOp15
 70
     1
102
RTVSPropertyOp16
 70
     1
102
RTVSPropertyOp17
 70
     1
102
RTVSPropertyOp18
 70
     1
102
RTVSPropertyOp19
 70
     1
102
RTVSPropertyOp20
 70
     1
102
RTVSPropertyOp21
 70
     1
102
RTVSPropertyOp22
 70
     1
102
RTVSPropertyOp23
 70
     1
102
RTVSPropertyOp24
 70
     1
102
RTVSPropertyOp25
 70
     1
102
RTVSPropertyOp26
 70
     1
102
RTVSPropertyOp27
 70
     1
102
RTVSPropertyOp28
 70
     1
102
RTVSPropertyOp29
 70
     1
102
RTVSPropertyOp30
 70
     1
102
RTVSPropertyOp31
 70
     1
102
RTVSPropertyOp32
 70
     1
  0
XRECORD
  5
1D7
102
{ACAD_REACTORS
330
1D6
102
}
330
1D6
100
AcDbXrecord
280
     1
102
RTVSPropertyOp0
 70
     1
102
RTVSPropertyOp1
 70
     1
102
RTVSPropertyOp2
 70
     1
102
RTVSPropertyOp3
 70
     1
102
RTVSPropertyOp4
 70
     1
102
RTVSPropertyOp5
 70
     1
102
RTVSPropertyOp6
 70
     1
102
RTVSPropertyOp7
 70
     1
102
RTVSPropertyOp8
 70
     1
102
RTVSPropertyOp9
 70
     1
102
RTVSPropertyOp10
 70
     1
102
RTVSPropertyOp11
 70
     1
102
RTVSPropertyOp12
 70
     1
102
RTVSPropertyOp13
 70
     1
102
RTVSPropertyOp14
 70
     1
102
RTVSPropertyOp15
 70
     1
102
RTVSPropertyOp16
 70
     1
102
RTVSPropertyOp17
 70
     1
102
RTVSPropertyOp18
 70
     1
102
RTVSPropertyOp19
 70
     1
102
RTVSPropertyOp20
 70
     1
102
RTVSPropertyOp21
 70
     1
102
RTVSPropertyOp22
 70
     1
102
RTVSPropertyOp23
 70
     1
102
RTVSPropertyOp24
 70
     1
102
RTVSPropertyOp25
 70
     1
102
RTVSPropertyOp26
 70
     1
102
RTVSPropertyOp27
 70
     1
102
RTVSPropertyOp28
 70
     1
102
RTVSPropertyOp29
 70
     1
102
RTVSPropertyOp30
 70
     1
102
RTVSPropertyOp31
 70
     1
102
RTVSPropertyOp32
 70
     1
  0
XRECORD
  5
1DF
102
{ACAD_REACTORS
330
1DE
102
}
330
1DE
100
AcDbXrecord
280
     1
102
RTVSPropertyOp0
 70
     1
102
RTVSPropertyOp1
 70
     1
102
RTVSPropertyOp2
 70
     1
102
RTVSPropertyOp3
 70
     1
102
RTVSPropertyOp4
 70
     1
102
RTVSPropertyOp5
 70
     1
102
RTVSPropertyOp6
 70
     1
102
RTVSPropertyOp7
 70
     1
102
RTVSPropertyOp8
 70
     1
102
RTVSPropertyOp9
 70
     1
102
RTVSPropertyOp10
 70
     1
102
RTVSPropertyOp11
 70
     1
102
RTVSPropertyOp12
 70
     1
102
RTVSPropertyOp13
 70
     1
102
RTVSPropertyOp14
 70
     1
102
RTVSPropertyOp15
 70
     1
102
RTVSPropertyOp16
 70
     1
102
RTVSPropertyOp17
 70
     1
102
RTVSPropertyOp18
 70
     1
102
RTVSPropertyOp19
 70
     1
102
RTVSPropertyOp20
 70
     1
102
RTVSPropertyOp21
 70
     1
102
RTVSPropertyOp22
 70
     1
102
RTVSPropertyOp23
 70
     1
102
RTVSPropertyOp24
 70
     1
102
RTVSPropertyOp25
 70
     1
102
RTVSPropertyOp26
 70
     1
102
RTVSPropertyOp27
 70
     1
102
RTVSPropertyOp28
 70
     1
102
RTVSPropertyOp29
 70
     1
102
RTVSPropertyOp30
 70
     1
102
RTVSPropertyOp31
 70
     1
102
RTVSPropertyOp32
 70
     1
  0
ENDSEC
  0
EOF
